Episode #11.5 | Better Angels season 02 episode 12 | Westworld S02E04 720p WEB H264-DEFLATE MKV

Скачать через торрент [VIDEO] Аватар Avatar бесплатно русская версия torrent активатор

Статистика раздачи
Размер:  3.28 GB   |    Зарегистрирован:  1 год 4 месяца   |    .torrent скачан:  73 раза   |   
Раздают:  1  
   
загрузка...
 
Автор Сообщение

Galfimbul

avatar Galfimbul


Аватар / Avatar
(Расширенная коллекционная версия / Extended Collector's Edition)
«Это новый мир»

Год выпуска: 2009
Страна: США, Великобритания
Жанр: фантастика, боевик, драма, приключения
Продолжительность: 02:58:09
Перевод №1: Русский Профессиональный (полное дублирование)
Перевод №2: Украинский Профессиональный (полное дублирование)
Перевод №3: Русский Профессиональный (двухголосый, закадровый) студия «Кубик в кубе»
Перевод №4: Русский Авторский (одноголосый, закадровый) Юрий Сербин
Оригинальная дорожка: Есть
Cубтитры: русские (Full (coloured)), русские (Forced (coloured)), русские (Extrafull (coloured)), русские (Extrafull), русские (Forced Stylized), русские (Full Stylized), русские (Extraforced (coloured)), украинские (Forced), английские (SDH), английские (Full), английские (Forced)
Режиссер: Джеймс Кэмерон / James Cameron
В ролях: Сэм Уортингтон (Jake Sully), Зои Салдана (Neytiri), Сигурни Уивер (Grace), Стивен Лэнг (Colonel Miles Quaritch), Мишель Родригес (Trudy Chacon), Джованни Рибизи (Parker Selfridge), Джоэль Мур (Norm Spellman), Си Си Эйч Паундер (Mo’at), Уэс Студи (Eytukan), Лас Алонсо (Tsu’tey), Дилип Рао (Dr. Max Patel), Мэтт Джералд (Corporal Lyle Wainfleet) и другие .
Роли дублировали: Александр Ноткин (Jake Sully), Мария Цветкова-Овсянникова (Neytiri), Мария Кузнецова (Grace), Валерий Соловьев (Colonel Miles Quaritch), Светлана Кузнецова (Trudy Chacon), Олег Алмазов (Parker Selfridge), Александр Майоров (Norm Spellman), Регина Щукина (Mo’at), Эрнест Тимерханов (Tsu’tey), Сергей Щипицын (Dr. Max Patel), Борис Хасанов, Александр Баргман (Suit #1) и другие .
Описание: Джейк Салли - бывший морской пехотинец, прикованный к инвалидному креслу. Несмотря на немощное тело, Джейк в душе по-прежнему остается воином. Он получает задание совершить путешествие в несколько световых лет к базе землян на планете Пандора, где корпорации добывают редкий минерал, имеющий огромное значение для выхода Земли из энергетического кризиса.
Релиз группы
Качество: BDRip / рип с BDRemux 1080p Extended Collector's Cut
Формат: MP4
Видео кодек: H.264
Аудио кодек: AAC
Видео: 960x540 AR:16/9 1973 kbps 23.976 fps
Аудио №1: [Russian] 2ch 48 kHz 128 kbps - Профессиональный (полное дублирование)
Аудио №2: [Ukrainian] 2ch 48 kHz 128 kbps - Профессиональный (полное дублирование)
Аудио №3: [Russian] 2ch 48 kHz 128 kbps - Профессиональный (двухголосый, закадровый) студия «Кубик в кубе»
Аудио №4: [Russian] 2ch 48 kHz 128 kbps - Авторский (одноголосый, закадровый) Юрий Сербин
Аудио №5: [English] 2ch 48 kHz 128 kbps - Оригинал
avs [info]: 960x540p 1:1 @ 2500000/104271 fps (cfr)
x264 [info]: using SAR=1/1
x264 [info]: using cpu capabilities: MMX2 SSE2Fast SSSE3 SSE4.2 AVX FMA3 AVX2 LZCNT BMI2
x264 [info]: profile High, level 4.1

x264 [info]: frame I:1990 Avg QP:22.91 size: 48140
x264 [info]: frame P:63842 Avg QP:24.76 size: 20202
x264 [info]: frame B:190457 Avg QP:27.57 size: 6570
x264 [info]: consecutive B-frames: 2.0% 2.8% 14.3% 43.1% 16.6% 17.9% 1.3% 2.0%
x264 [info]: mb I I16..4: 6.9% 69.3% 23.9%
x264 [info]: mb P I16..4: 1.1% 15.7% 3.4% P16..4: 38.7% 21.6% 10.6% 0.0% 0.0% skip: 9.0%
x264 [info]: mb B I16..4: 0.1% 1.7% 0.4% B16..8: 42.6% 10.0% 2.9% direct: 4.8% skip:37.6% L0:40.0% L1:47.4% BI:12.6%
x264 [info]: 8x8 transform intra:76.5% inter:69.1%
x264 [info]: coded y,uvDC,uvAC intra: 86.1% 74.6% 35.3% inter: 21.0% 14.3% 1.4%
x264 [info]: i16 v,h,dc,p: 15% 17% 6% 62%
x264 [info]: i8 v,h,dc,ddl,ddr,vr,hd,vl,hu: 7% 6% 2% 11% 17% 15% 16% 12% 14%
x264 [info]: i4 v,h,dc,ddl,ddr,vr,hd,vl,hu: 8% 6% 2% 9% 17% 15% 17% 11% 15%
x264 [info]: i8c dc,h,v,p: 36% 25% 19% 19%
x264 [info]: Weighted P-Frames: Y:5.2% UV:3.5%
x264 [info]: ref P L0: 58.2% 18.5% 11.9% 3.9% 3.0% 2.2% 2.2% 0.1% 0.0%
x264 [info]: ref B L0: 89.9% 5.5% 2.5% 1.1% 0.6% 0.3%
x264 [info]: ref B L1: 97.7% 2.3%
x264 [info]: kb/s:1973.45

encoded 256289 frames, 14.53 fps, 1973.45 kb/s
GeneralComplete name : D:\Torrents\Avatar.2009.[Extended Collector's Edition].BDRip.x264.960x.rip by Frost O.S.mp4Format : MPEG-4Format profile : Base MediaCodec ID : isom (isom/avc1/iso2)File size : 3.28 GiBDuration : 2 h 58 minOverall bit rate mode : VariableOverall bit rate : 2 637 kb/sMovie name : Avatar 2009 [Extended Collector's Edition] BDRip x264 960x rip by Frost O SDirector : Джеймс Кэмерон / James CameronActor : Сэм Уортингтон (Jake Sully) / Зои Салдана (Neytiri) / Сигурни Уивер (Grace) / Стивен Лэнг (Colonel Miles Quaritch) / Мишель Родригес (Trudy Chacon) / Джованни Рибизи (Parker Selfridge) / Джоэль Мур (Norm Spellman) / Си Си Эйч Паундер (Mo’at) / Уэс Студи (Eytukan) / Лас Алонсо (Tsu’tey) / Дилип Рао (Dr. Max Patel) / Мэтт Джералд (Corporal Lyle Wainfleet)Genre : ActionContentType : Short FilmEncoded date : UTC 2017-03-06 09:45:32Tagged date : UTC 2017-03-06 09:51:41Writing application : MkvToMp4 version: 0.224 (x64)Cover : YesComment : rip by Frost O.SLongDescription : Джейк Салли - бывший морской пехотинец, прикованный к инвалидному креслу. Несмотря на немощное тело, Джейк в душе по-прежнему остается воином. Он получает задание совершить путешествие в несколько световых лет к базе землян на планете Пандора, где корпорации добывают редкий минерал, имеющий огромное значение для выхода Земли из энергетического кризиса.

VideoID : 1Format : AVCFormat/Info : Advanced Video CodecFormat profile : [email protected] settings, CABAC : YesFormat settings, ReFrames : 7 framesCodec ID : avc1Codec ID/Info : Advanced Video CodingDuration : 2 h 58 minBit rate : 1 973 kb/sMaximum bit rate : 7 621 kb/sWidth : 960 pixelsHeight : 540 pixelsDisplay aspect ratio : 16:9Frame rate mode : ConstantFrame rate : 23.976 (24000/1001) FPSColor space : YUVChroma subsampling : 4:2:0Bit depth : 8 bitsScan type : ProgressiveBits/(Pixel*Frame) : 0.159Stream size : 2.46 GiB (75%)Writing library : x264 core 148 r2744 b97ae06Encoding settings : cabac=1 / ref=7 / deblock=1:-1:-1 / analyse=0x3:0x113 / me=umh / subme=10 / psy=1 / psy_rd=1.00:0.00 / mixed_ref=1 / me_range=16 / chroma_me=1 / trellis=2 / 8x8dct=1 / cqm=0 / deadzone=21,11 / fast_pskip=1 / chroma_qp_offset=-2 / threads=6 / lookahead_threads=1 / sliced_threads=0 / nr=0 / decimate=1 / interlaced=0 / bluray_compat=0 / constrained_intra=0 / bframes=7 / b_pyramid=2 / b_adapt=2 / b_bias=0 / direct=1 / weightb=1 / open_gop=0 / weightp=2 / keyint=250 / keyint_min=23 / scenecut=40 / intra_refresh=0 / rc_lookahead=60 / rc=crf / mbtree=0 / crf=21.5 / qcomp=0.60 / qpmin=0 / qpmax=69 / qpstep=4 / vbv_maxrate=50000 / vbv_bufsize=62500 / crf_max=0.0 / nal_hrd=none / filler=0 / ip_ratio=1.40 / pb_ratio=1.30 / aq=2:1.00Language : EnglishEncoded date : UTC 2017-03-06 09:45:32Tagged date : UTC 2017-03-06 09:47:43Color range : LimitedColor primaries : BT.709Transfer characteristics : BT.709Matrix coefficients : BT.709

Audio #1ID : 2Format : AACFormat/Info : Advanced Audio CodecFormat profile : LCCodec ID : 40Duration : 2 h 58 minBit rate mode : VariableBit rate : 128 kb/sMaximum bit rate : 135 kb/sChannel(s) : 2 channelsChannel positions : Front: L RSampling rate : 48.0 kHzFrame rate : 46.875 FPS (1024 spf)Compression mode : LossyStream size : 163 MiB (5%)Title : Dub / DubLanguage : RussianDefault : YesAlternate group : 1Encoded date : UTC 2017-03-06 09:46:53Tagged date : UTC 2017-03-06 09:47:43

Audio #2ID : 3Format : AACFormat/Info : Advanced Audio CodecFormat profile : LCCodec ID : 40Duration : 2 h 58 minBit rate mode : VariableBit rate : 128 kb/sMaximum bit rate : 135 kb/sChannel(s) : 2 channelsChannel positions : Front: L RSampling rate : 48.0 kHzFrame rate : 46.875 FPS (1024 spf)Compression mode : LossyStream size : 163 MiB (5%)Title : Dub / DubLanguage : UkrainianDefault : NoAlternate group : 1Encoded date : UTC 2017-03-06 09:47:03Tagged date : UTC 2017-03-06 09:47:43

Audio #3ID : 4Format : AACFormat/Info : Advanced Audio CodecFormat profile : LCCodec ID : 40Duration : 2 h 58 minBit rate mode : VariableBit rate : 128 kb/sMaximum bit rate : 135 kb/sChannel(s) : 2 channelsChannel positions : Front: L RSampling rate : 48.0 kHzFrame rate : 46.875 FPS (1024 spf)Compression mode : LossyStream size : 163 MiB (5%)Title : DVO_ studiya _Kybik v kybe_ / DVO_ studiya _Kybik v kybe_Language : RussianDefault : NoAlternate group : 1Encoded date : UTC 2017-03-06 09:47:14Tagged date : UTC 2017-03-06 09:47:43

Audio #4ID : 5Format : AACFormat/Info : Advanced Audio CodecFormat profile : LCCodec ID : 40Duration : 2 h 58 minBit rate mode : VariableBit rate : 128 kb/sMaximum bit rate : 135 kb/sChannel(s) : 2 channelsChannel positions : Front: L RSampling rate : 48.0 kHzFrame rate : 46.875 FPS (1024 spf)Compression mode : LossyStream size : 163 MiB (5%)Title : VO_ Serbin / VO_ SerbinLanguage : RussianDefault : NoAlternate group : 1Encoded date : UTC 2017-03-06 09:47:23Tagged date : UTC 2017-03-06 09:47:43

Audio #5ID : 6Format : AACFormat/Info : Advanced Audio CodecFormat profile : LCCodec ID : 40Duration : 2 h 58 minBit rate mode : VariableBit rate : 128 kb/sMaximum bit rate : 135 kb/sChannel(s) : 2 channelsChannel positions : Front: L RSampling rate : 48.0 kHzFrame rate : 46.875 FPS (1024 spf)Compression mode : LossyStream size : 163 MiB (5%)Title : Original / OriginalLanguage : EnglishDefault : NoAlternate group : 1Encoded date : UTC 2017-03-06 09:47:31Tagged date : UTC 2017-03-06 09:47:43

Text #1ID : 7Format : Timed TextMuxing mode : sbtlCodec ID : tx3gDuration : 2 h 58 minBit rate mode : VariableBit rate : 3 b/sStream size : 3.38 KiB (0%)Title : Forced / ForcedLanguage : RussianDefault : YesForced : NoAlternate group : 2Encoded date : UTC 2017-03-06 09:47:42Tagged date : UTC 2017-03-06 09:47:43

Text #2ID : 8Format : Timed TextMuxing mode : sbtlCodec ID : tx3gDuration : 2 h 58 minBit rate mode : VariableBit rate : 58 b/sStream size : 75.5 KiB (0%)Title : Full / FullLanguage : RussianDefault : NoForced : NoAlternate group : 2Encoded date : UTC 2017-03-06 09:47:42Tagged date : UTC 2017-03-06 09:47:43

Text #3ID : 9Format : Timed TextMuxing mode : sbtlCodec ID : tx3gDuration : 2 h 54 minBit rate mode : VariableBit rate : 5 b/sStream size : 5.84 KiB (0%)Title : Forced _coloured_ / Forced _coloured_Language : RussianDefault : NoForced : NoAlternate group : 2Encoded date : UTC 2017-03-06 09:47:42Tagged date : UTC 2017-03-06 09:47:43

Text #4ID : 10Format : Timed TextMuxing mode : sbtlCodec ID : tx3gDuration : 2 h 54 minBit rate mode : VariableBit rate : 70 b/sStream size : 89.5 KiB (0%)Title : Full _coloured_ / Full _coloured_Language : RussianDefault : NoForced : NoAlternate group : 2Encoded date : UTC 2017-03-06 09:47:42Tagged date : UTC 2017-03-06 09:47:43

Text #5ID : 11Format : Timed TextMuxing mode : sbtlCodec ID : tx3gDuration : 2 h 58 minBit rate mode : VariableBit rate : 3 b/sStream size : 4.05 KiB (0%)Title : Forced _Stylized_ / Forced _Stylized_Language : RussianDefault : NoForced : NoAlternate group : 2Encoded date : UTC 2017-03-06 09:47:42Tagged date : UTC 2017-03-06 09:47:43

Text #6ID : 12Format : Timed TextMuxing mode : sbtlCodec ID : tx3gDuration : 2 h 58 minBit rate mode : VariableBit rate : 64 b/sStream size : 83.3 KiB (0%)Title : Full _Stylized_ / Full _Stylized_Language : RussianDefault : NoForced : NoAlternate group : 2Encoded date : UTC 2017-03-06 09:47:42Tagged date : UTC 2017-03-06 09:47:43

Text #7ID : 13Format : Timed TextMuxing mode : sbtlCodec ID : tx3gDuration : 2 h 54 minBit rate mode : VariableBit rate : 14 b/sStream size : 17.4 KiB (0%)Title : Forced _ExtraColor_ / Forced _ExtraColor_Language : RussianDefault : NoForced : NoAlternate group : 2Encoded date : UTC 2017-03-06 09:47:42Tagged date : UTC 2017-03-06 09:47:43

Text #8ID : 14Format : Timed TextMuxing mode : sbtlCodec ID : tx3gDuration : 2 h 54 minBit rate mode : VariableBit rate : 81 b/sStream size : 103 KiB (0%)Title : Full _ExtraColor_ / Full _ExtraColor_Language : RussianDefault : NoForced : NoAlternate group : 2Encoded date : UTC 2017-03-06 09:47:42Tagged date : UTC 2017-03-06 09:47:43

Text #9ID : 15Format : Timed TextMuxing mode : sbtlCodec ID : tx3gDuration : 2 h 54 minBit rate mode : VariableBit rate : 78 b/sStream size : 99.1 KiB (0%)Title : Full _Extra_ / Full _Extra_Language : RussianDefault : NoForced : NoAlternate group : 2Encoded date : UTC 2017-03-06 09:47:42Tagged date : UTC 2017-03-06 09:47:43

Text #10ID : 16Format : Timed TextMuxing mode : sbtlCodec ID : tx3gDuration : 2 h 48 minBit rate mode : VariableBit rate : 10 b/sStream size : 12.9 KiB (0%)Title : Forced / ForcedLanguage : UkrainianDefault : NoForced : NoAlternate group : 2Encoded date : UTC 2017-03-06 09:47:42Tagged date : UTC 2017-03-06 09:47:43

Text #11ID : 17Format : Timed TextMuxing mode : sbtlCodec ID : tx3gDuration : 2 h 14 minBit rate mode : VariableBit rate : 2 b/sStream size : 2.24 KiB (0%)Title : Forced / ForcedLanguage : EnglishDefault : NoForced : NoAlternate group : 2Encoded date : UTC 2017-03-06 09:47:42Tagged date : UTC 2017-03-06 09:47:43

Text #12ID : 18Format : Timed TextMuxing mode : sbtlCodec ID : tx3gDuration : 2 h 54 minBit rate mode : VariableBit rate : 2 b/sStream size : 2.84 KiB (0%)Title : Forced _Stylized_ / Forced _Stylized_Language : EnglishDefault : NoForced : NoAlternate group : 2Encoded date : UTC 2017-03-06 09:47:42Tagged date : UTC 2017-03-06 09:47:43

Text #13ID : 19Format : Timed TextMuxing mode : sbtlCodec ID : tx3gDuration : 2 h 54 minBit rate mode : VariableBit rate : 48 b/sStream size : 61.0 KiB (0%)Title : Full / FullLanguage : EnglishDefault : NoForced : NoAlternate group : 2Encoded date : UTC 2017-03-06 09:47:42Tagged date : UTC 2017-03-06 09:47:43

Text #14ID : 20Format : Timed TextMuxing mode : sbtlCodec ID : tx3gDuration : 2 h 58 minBit rate mode : VariableBit rate : 54 b/sStream size : 70.5 KiB (0%)Title : Full _SDH_ / Full _SDH_Language : EnglishDefault : NoForced : NoAlternate group : 2Encoded date : UTC 2017-03-06 09:47:42Tagged date : UTC 2017-03-06 09:47:43


Трекер:  [ 06-Мар-2017 12:00 ]

  

Скачать .torrent

Размер .torrent файла 17 KB


Размер: 3.28 GB
Хэш (hash) релиза: ce798ff5437927e26ea20d835c061af73e54c198

Еще никто не оставлял запись к записи скачать торрент [VIDEO] Аватар Avatar . Будь первым!

!Обратная связь