Scorched (Frigid #2) | What's That Sound? Complete Albums Collection: Disc 1 - Buffalo Springfield (Mono Mix) | Nashville

Скачать через торрент [VIDEO] Аватар Avatar бесплатно русская версия torrent активатор

Статистика раздачи
Размер:  3.22 GB   |    Зарегистрирован:  1 год 4 месяца   |    .torrent скачан:  46 раз   |   
Раздают:  1  
   
загрузка...
 
Автор Сообщение

Galfimbul

avatar Galfimbul


Аватар / Avatar
(Театральная версия / Theatrical Cut)
«Это новый мир»

Год выпуска: 2009
Страна: США, Великобритания
Жанр: фантастика, боевик, драма, приключения
Продолжительность: 02:41:42
Перевод №1: Русский Профессиональный (полное дублирование) Blu-Ray CEE
Перевод №2: Украинский Профессиональный (полное дублирование)
Перевод №3: Русский Авторский (одноголосый, закадровый) Юрий Сербин
Перевод №4: Русский Авторский (одноголосый, закадровый) Андрей Гаврилов
Перевод №5: Русский Авторский (одноголосый, закадровый) Василий Горчаков
Оригинальная дорожка: Есть
Cубтитры: русские (форсированные, стилизованные, полные, Voronine), украинские (форсированные, полные), английские ((форсированные, стилизованные, полные)
Режиссер: Джеймс Кэмерон / James Cameron
В ролях: Сэм Уортингтон (Jake Sully), Зои Салдана (Neytiri), Сигурни Уивер (Grace), Стивен Лэнг (Colonel Miles Quaritch), Мишель Родригес (Trudy Chacon), Джованни Рибизи (Parker Selfridge), Джоэль Мур (Norm Spellman), Си Си Эйч Паундер (Mo’at), Уэс Студи (Eytukan), Лас Алонсо (Tsu’tey), Дилип Рао (Dr. Max Patel), Мэтт Джералд (Corporal Lyle Wainfleet) и другие .
Роли дублировали: Александр Ноткин (Jake Sully), Мария Цветкова-Овсянникова (Neytiri), Мария Кузнецова (Grace), Валерий Соловьев (Colonel Miles Quaritch), Светлана Кузнецова (Trudy Chacon), Олег Алмазов (Parker Selfridge), Александр Майоров (Norm Spellman), Регина Щукина (Mo’at), Эрнест Тимерханов (Tsu’tey), Сергей Щипицын (Dr. Max Patel), Борис Хасанов, Александр Баргман (Suit #1) и другие .
Описание: Джейк Салли - бывший морской пехотинец, прикованный к инвалидному креслу. Несмотря на немощное тело, Джейк в душе по-прежнему остается воином. Он получает задание совершить путешествие в несколько световых лет к базе землян на планете Пандора, где корпорации добывают редкий минерал, имеющий огромное значение для выхода Земли из энергетического кризиса.
Релиз группы
Качество: BDRip / рип с BDRemux 1080p
Формат: MP4
Видео кодек: H.264
Аудио кодек: AAC
Видео: 960x540 AR:16/9 2060 kbps 23.976 fps
Аудио №1: [Russian] 2ch 48 kHz 128 kbps - Профессиональный (полное дублирование) Blu-Ray CEE
Аудио №2: [Ukrainian] 2ch 48 kHz 128 kbps - Профессиональный (полное дублирование)
Аудио №3: [Russian] 2ch 48 kHz 128 kbps - Авторский (одноголосый, закадровый) Юрий Сербин
Аудио №4: [Russian] 2ch 48 kHz 128 kbps - Авторский (одноголосый, закадровый) Андрей Гаврилов
Аудио №5: [Russian] 2ch 48 kHz 128 kbps - Авторский (одноголосый, закадровый) Василий Горчаков
Аудио №6: [English] 2ch 48 kHz 128 kbps - Оригинал
avs [info]: 960x540p 1:1 @ 2500000/104271 fps (cfr)
x264 [info]: using SAR=1/1
x264 [info]: using cpu capabilities: MMX2 SSE2Fast SSSE3 SSE4.2 AVX FMA3 AVX2 LZCNT BMI2
x264 [info]: profile High, level 4.1

x264 [info]: frame I:1823 Avg QP:22.83 size: 50673
x264 [info]: frame P:57920 Avg QP:24.65 size: 21218
x264 [info]: frame B:172863 Avg QP:27.40 size: 6807
x264 [info]: consecutive B-frames: 2.1% 3.0% 14.3% 42.1% 15.0% 19.1% 2.6% 1.8%
x264 [info]: mb I I16..4: 6.5% 71.7% 21.8%
x264 [info]: mb P I16..4: 1.0% 15.3% 3.2% P16..4: 38.4% 22.7% 11.3% 0.0% 0.0% skip: 8.0%
x264 [info]: mb B I16..4: 0.1% 1.5% 0.4% B16..8: 42.8% 10.4% 3.1% direct: 4.8% skip:36.8% L0:40.3% L1:46.9% BI:12.8%
x264 [info]: 8x8 transform intra:77.2% inter:69.5%
x264 [info]: coded y,uvDC,uvAC intra: 86.1% 78.3% 42.5% inter: 21.7% 15.3% 2.3%
x264 [info]: i16 v,h,dc,p: 17% 18% 6% 59%
x264 [info]: i8 v,h,dc,ddl,ddr,vr,hd,vl,hu: 7% 6% 3% 10% 17% 15% 16% 12% 13%
x264 [info]: i4 v,h,dc,ddl,ddr,vr,hd,vl,hu: 8% 6% 2% 9% 17% 15% 17% 12% 14%
x264 [info]: i8c dc,h,v,p: 40% 23% 19% 18%
x264 [info]: Weighted P-Frames: Y:5.5% UV:3.7%
x264 [info]: ref P L0: 57.7% 18.2% 11.8% 4.3% 3.2% 2.4% 2.3% 0.1% 0.0%
x264 [info]: ref B L0: 88.9% 5.9% 2.9% 1.4% 0.7% 0.3%
x264 [info]: ref B L1: 97.4% 2.6%
x264 [info]: kb/s:2059.91

encoded 232606 frames, 14.13 fps, 2059.91 kb/s
GeneralComplete name : D:\Torrents\Avatar.2009.[Theatrical Cut].BDRip.x264.960x.rip by Frost O.S.mp4Format : MPEG-4Format profile : Base MediaCodec ID : isom (isom/avc1/iso2)File size : 3.22 GiBDuration : 2 h 41 minOverall bit rate mode : VariableOverall bit rate : 2 855 kb/sMovie name : Avatar 2009 [Theatrical Cut] BDRip x264 960x rip by Frost O SDirector : Джеймс Кэмерон / James CameronActor : Сэм Уортингтон (Jake Sully) / Зои Салдана (Neytiri) / Сигурни Уивер (Grace) / Стивен Лэнг (Colonel Miles Quaritch) / Мишель Родригес (Trudy Chacon) / Джованни Рибизи (Parker Selfridge) / Джоэль Мур (Norm Spellman) / Си Си Эйч Паундер (Mo’at) / Уэс Студи (Eytukan) / Лас Алонсо (Tsu’tey) / Дилип Рао (Dr. Max Patel) / Мэтт Джералд (Corporal Lyle Wainfleet)Genre : ActionContentType : Short FilmEncoded date : UTC 2017-03-06 08:39:23Tagged date : UTC 2017-03-06 08:48:16Writing application : MkvToMp4 version: 0.224 (x64)Cover : YesComment : rip by Frost O.SLongDescription : Джейк Салли - бывший морской пехотинец, прикованный к инвалидному креслу. Несмотря на немощное тело, Джейк в душе по-прежнему остается воином. Он получает задание совершить путешествие в несколько световых лет к базе землян на планете Пандора, где корпорации добывают редкий минерал, имеющий огромное значение для выхода Земли из энергетического кризиса.

VideoID : 1Format : AVCFormat/Info : Advanced Video CodecFormat profile : [email protected] settings, CABAC : YesFormat settings, ReFrames : 7 framesCodec ID : avc1Codec ID/Info : Advanced Video CodingDuration : 2 h 41 minBit rate : 2 060 kb/sMaximum bit rate : 7 451 kb/sWidth : 960 pixelsHeight : 540 pixelsDisplay aspect ratio : 16:9Frame rate mode : ConstantFrame rate : 23.976 (24000/1001) FPSColor space : YUVChroma subsampling : 4:2:0Bit depth : 8 bitsScan type : ProgressiveBits/(Pixel*Frame) : 0.166Stream size : 2.33 GiB (72%)Writing library : x264 core 148 r2705 3f5ed56Encoding settings : cabac=1 / ref=7 / deblock=1:-1:-1 / analyse=0x3:0x113 / me=umh / subme=10 / psy=1 / psy_rd=1.05:0.00 / mixed_ref=1 / me_range=32 / chroma_me=1 / trellis=2 / 8x8dct=1 / cqm=0 / deadzone=21,11 / fast_pskip=1 / chroma_qp_offset=-2 / threads=6 / lookahead_threads=1 / sliced_threads=0 / nr=0 / decimate=1 / interlaced=0 / bluray_compat=0 / constrained_intra=0 / bframes=7 / b_pyramid=2 / b_adapt=2 / b_bias=0 / direct=1 / weightb=1 / open_gop=0 / weightp=2 / keyint=250 / keyint_min=23 / scenecut=40 / intra_refresh=0 / rc_lookahead=60 / rc=crf / mbtree=0 / crf=21.4 / qcomp=0.60 / qpmin=0 / qpmax=69 / qpstep=4 / vbv_maxrate=50000 / vbv_bufsize=62500 / crf_max=0.0 / nal_hrd=none / filler=0 / ip_ratio=1.40 / pb_ratio=1.30 / aq=2:1.00Language : EnglishEncoded date : UTC 2017-03-06 08:39:23Tagged date : UTC 2017-03-06 08:42:23Color range : LimitedColor primaries : BT.709Transfer characteristics : BT.709Matrix coefficients : BT.709

Audio #1ID : 2Format : AACFormat/Info : Advanced Audio CodecFormat profile : LCCodec ID : 40Duration : 2 h 41 minBit rate mode : VariableBit rate : 128 kb/sMaximum bit rate : 135 kb/sChannel(s) : 2 channelsChannel positions : Front: L RSampling rate : 48.0 kHzFrame rate : 46.875 FPS (1024 spf)Compression mode : LossyStream size : 148 MiB (4%)Title : Dub_ Blu_Ray CEE / Dub_ Blu_Ray CEELanguage : RussianDefault : YesAlternate group : 1Encoded date : UTC 2017-03-06 08:41:14Tagged date : UTC 2017-03-06 08:42:23

Audio #2ID : 3Format : AACFormat/Info : Advanced Audio CodecFormat profile : LCCodec ID : 40Duration : 2 h 41 minBit rate mode : VariableBit rate : 128 kb/sMaximum bit rate : 135 kb/sChannel(s) : 2 channelsChannel positions : Front: L RSampling rate : 48.0 kHzFrame rate : 46.875 FPS (1024 spf)Compression mode : LossyStream size : 148 MiB (4%)Title : Dub / DubLanguage : UkrainianDefault : NoAlternate group : 1Encoded date : UTC 2017-03-06 08:41:26Tagged date : UTC 2017-03-06 08:42:23

Audio #3ID : 4Format : AACFormat/Info : Advanced Audio CodecFormat profile : LCCodec ID : 40Duration : 2 h 41 minBit rate mode : VariableBit rate : 128 kb/sMaximum bit rate : 135 kb/sChannel(s) : 2 channelsChannel positions : Front: L RSampling rate : 48.0 kHzFrame rate : 46.875 FPS (1024 spf)Compression mode : LossyStream size : 148 MiB (4%)Title : VO_ Serbin / VO_ SerbinLanguage : RussianDefault : NoAlternate group : 1Encoded date : UTC 2017-03-06 08:41:38Tagged date : UTC 2017-03-06 08:42:23

Audio #4ID : 5Format : AACFormat/Info : Advanced Audio CodecFormat profile : LCCodec ID : 40Duration : 2 h 41 minBit rate mode : VariableBit rate : 128 kb/sMaximum bit rate : 135 kb/sChannel(s) : 2 channelsChannel positions : Front: L RSampling rate : 48.0 kHzFrame rate : 46.875 FPS (1024 spf)Compression mode : LossyStream size : 148 MiB (4%)Title : VO_ Gavrilov / VO_ GavrilovLanguage : RussianDefault : NoAlternate group : 1Encoded date : UTC 2017-03-06 08:41:49Tagged date : UTC 2017-03-06 08:42:23

Audio #5ID : 6Format : AACFormat/Info : Advanced Audio CodecFormat profile : LCCodec ID : 40Duration : 2 h 41 minBit rate mode : VariableBit rate : 128 kb/sMaximum bit rate : 135 kb/sChannel(s) : 2 channelsChannel positions : Front: L RSampling rate : 48.0 kHzFrame rate : 46.875 FPS (1024 spf)Compression mode : LossyStream size : 148 MiB (4%)Title : VO_ Gorchakov / VO_ GorchakovLanguage : RussianDefault : NoAlternate group : 1Encoded date : UTC 2017-03-06 08:42:00Tagged date : UTC 2017-03-06 08:42:23

Audio #6ID : 7Format : AACFormat/Info : Advanced Audio CodecFormat profile : LCCodec ID : 40Duration : 2 h 41 minBit rate mode : VariableBit rate : 128 kb/sMaximum bit rate : 135 kb/sChannel(s) : 2 channelsChannel positions : Front: L RSampling rate : 48.0 kHzFrame rate : 46.875 FPS (1024 spf)Compression mode : LossyStream size : 148 MiB (4%)Title : Original / OriginalLanguage : EnglishDefault : NoAlternate group : 1Encoded date : UTC 2017-03-06 08:42:11Tagged date : UTC 2017-03-06 08:42:23

Text #1ID : 8Format : Timed TextMuxing mode : sbtlCodec ID : tx3gDuration : 2 h 30 minBit rate mode : VariableBit rate : 3 b/sStream size : 3.33 KiB (0%)Title : Forced / ForcedLanguage : RussianDefault : YesForced : NoAlternate group : 2Encoded date : UTC 2017-03-06 08:42:23Tagged date : UTC 2017-03-06 08:42:23

Text #2ID : 9Format : Timed TextMuxing mode : sbtlCodec ID : tx3gDuration : 2 h 30 minBit rate mode : VariableBit rate : 3 b/sStream size : 3.32 KiB (0%)Title : Forced Styled / Forced StyledLanguage : RussianDefault : NoForced : NoAlternate group : 2Encoded date : UTC 2017-03-06 08:42:23Tagged date : UTC 2017-03-06 08:42:23

Text #3ID : 10Format : Timed TextMuxing mode : sbtlCodec ID : tx3gDuration : 2 h 33 minBit rate mode : VariableBit rate : 70 b/sStream size : 79.1 KiB (0%)Title : Licence / LicenceLanguage : RussianDefault : NoForced : NoAlternate group : 2Encoded date : UTC 2017-03-06 08:42:23Tagged date : UTC 2017-03-06 08:42:23

Text #4ID : 11Format : Timed TextMuxing mode : sbtlCodec ID : tx3gDuration : 2 h 33 minBit rate mode : VariableBit rate : 67 b/sStream size : 75.2 KiB (0%)Title : Licence Styled / Licence StyledLanguage : RussianDefault : NoForced : NoAlternate group : 2Encoded date : UTC 2017-03-06 08:42:23Tagged date : UTC 2017-03-06 08:42:23

Text #5ID : 12Format : Timed TextMuxing mode : sbtlCodec ID : tx3gDuration : 2 h 35 minBit rate mode : VariableBit rate : 71 b/sStream size : 80.9 KiB (0%)Title : Voronine / VoronineLanguage : RussianDefault : NoForced : NoAlternate group : 2Encoded date : UTC 2017-03-06 08:42:23Tagged date : UTC 2017-03-06 08:42:23

Text #6ID : 13Format : Timed TextMuxing mode : sbtlCodec ID : tx3gDuration : 2 h 35 minBit rate mode : VariableBit rate : 82 b/sStream size : 93.5 KiB (0%)Title : Voronine Colored / Voronine ColoredLanguage : RussianDefault : NoForced : NoAlternate group : 2Encoded date : UTC 2017-03-06 08:42:23Tagged date : UTC 2017-03-06 08:42:23

Text #7ID : 14Format : Timed TextMuxing mode : sbtlCodec ID : tx3gDuration : 2 h 35 minBit rate mode : VariableBit rate : 88 b/sStream size : 99.8 KiB (0%)Title : Voronine Hearing Impaired Colored / Voronine Hearing Impaired ColoredLanguage : RussianDefault : NoForced : NoAlternate group : 2Encoded date : UTC 2017-03-06 08:42:23Tagged date : UTC 2017-03-06 08:42:23

Text #8ID : 15Format : Timed TextMuxing mode : sbtlCodec ID : tx3gDuration : 2 h 30 minBit rate mode : VariableBit rate : 3 b/sStream size : 3.39 KiB (0%)Title : Forced / ForcedLanguage : UkrainianDefault : NoForced : NoAlternate group : 2Encoded date : UTC 2017-03-06 08:42:23Tagged date : UTC 2017-03-06 08:42:23

Text #9ID : 16Format : Timed TextMuxing mode : sbtlCodec ID : tx3gDuration : 2 h 33 minBit rate mode : VariableBit rate : 77 b/sStream size : 87.1 KiB (0%)Title : Full / FullLanguage : UkrainianDefault : NoForced : NoAlternate group : 2Encoded date : UTC 2017-03-06 08:42:23Tagged date : UTC 2017-03-06 08:42:23

Text #10ID : 17Format : Timed TextMuxing mode : sbtlCodec ID : tx3gDuration : 2 h 0 minBit rate mode : VariableBit rate : 2 b/sStream size : 2.15 KiB (0%)Title : Forced / ForcedLanguage : EnglishDefault : NoForced : NoAlternate group : 2Encoded date : UTC 2017-03-06 08:42:23Tagged date : UTC 2017-03-06 08:42:23

Text #11ID : 18Format : Timed TextMuxing mode : sbtlCodec ID : tx3gDuration : 2 h 0 minBit rate mode : VariableBit rate : 2 b/sStream size : 2.14 KiB (0%)Title : Forced Styled / Forced StyledLanguage : EnglishDefault : NoForced : NoAlternate group : 2Encoded date : UTC 2017-03-06 08:42:23Tagged date : UTC 2017-03-06 08:42:23

Text #12ID : 19Format : Timed TextMuxing mode : sbtlCodec ID : tx3gDuration : 2 h 33 minBit rate mode : VariableBit rate : 44 b/sStream size : 49.1 KiB (0%)Title : Styled / StyledLanguage : EnglishDefault : NoForced : NoAlternate group : 2Encoded date : UTC 2017-03-06 08:42:23Tagged date : UTC 2017-03-06 08:42:23

Text #13ID : 20Format : Timed TextMuxing mode : sbtlCodec ID : tx3gDuration : 2 h 33 minBit rate mode : VariableBit rate : 51 b/sStream size : 57.4 KiB (0%)Title : Full / FullLanguage : EnglishDefault : NoForced : NoAlternate group : 2Encoded date : UTC 2017-03-06 08:42:23Tagged date : UTC 2017-03-06 08:42:23


Трекер:  [ 06-Мар-2017 11:30 ]

  

Скачать .torrent

Размер .torrent файла 16 KB


Размер: 3.22 GB
Хэш (hash) релиза: 396de81ec4dbfb549736013755351fabf45ec122

Еще никто не оставлял запись к записи скачать торрент [VIDEO] Аватар Avatar . Будь первым!

!Обратная связь