Election 2005 1080p BluRay x264-aBD
[Japan][日本][HEYZO heyzo com] HEYZO 1500-1599 超清 高清 标清 种子 含..

Скачать через торрент [VIDEO] Джанго освобожденный Django Unchained бесплатно русская версия torrent активатор

Статистика раздачи
Размер:  3.47 GB   |    Зарегистрирован:  1 год 1 месяц   |    .torrent скачан:  52 раза   |   
Раздают:  1  
   
загрузка...
 
Автор Сообщение

Galfimbul

avatar Galfimbul


Джанго освобожденный / Django Unchained
«Они забрали его свободу. Он заберёт у них всё»
Премьера: 11 декабря 2012
Оригинальное название: Django Unchained
Страна: США
Жанр: драма, вестерн, приключения, комедия
Возраст: 18+

Режиссер: Квентин Тарантино / Quentin Tarantino

В ролях: Джейми Фокс, Кристоф Вальц, Леонардо ДиКаприо, Керри Вашингтон, Сэмюэл Л. Джексон, Джона Хилл, Эмбер Тэмблин, Уолтон Гоггинс, Джеймс Римар, Дон Джонсон, Зои Белл, Роберт Кэрредин, Брюс Дерн, Майкл Паркс, Джеймс Руссо, Том Савини, Гэри Граббс

Описание: Эксцентричный охотник за головами, также известный как «Дантист», промышляет отстрелом самых опасных преступников. Работенка пыльная, и без надежного помощника ему не обойтись. Но как найти такого и желательно не очень дорогого? Беглый раб по имени Джанго — прекрасная кандидатура. Правда, у нового помощника свои мотивы — кое с чем надо разобраться…

Продолжительность: 02:45:23
Перевод: Дублированный [Лицензия]
Оригинальная дорожка: нет

Автор рипа:

Качество видео: BDRip Исходник: Blu-Ray Remux (1080p) Формат: mp4
Видео кодек: MPEG-4 AVC Аудио кодек: AAC
Видео: 1280x534 (2.40:1) at 23.976 fps, AVC at 2 867 kbps avg, 0.175 bit/pixel
Аудио №1 Rus: 48.0 KHz, AAC, 2 ch, 128.0 Kbps
Субтитры: русские (форсированные)
Навигация по главам: есть
Размер: 3.47 GiB
avs [info]: 1280x534p 1:1 @ 24000/1001 fps (cfr)
x264 [info]: using SAR=1/1
x264 [info]: using cpu capabilities: MMX2 SSE2Fast SSSE3 Cache64
x264 [info]: profile High, level 4.1
x264 [info]: frame I:1991 Avg QP:13.48 size:138638
x264 [info]: frame P:44695 Avg QP:16.99 size: 39398
x264 [info]: frame B:191225 Avg QP:20.21 size: 7942
x264 [info]: consecutive B-frames: 1.2% 1.0% 3.1% 17.6% 17.2% 34.4% 9.8% 11.6% 2.8% 1.2%
x264 [info]: mb I I16..4: 4.3% 71.3% 24.4%
x264 [info]: mb P I16..4: 0.5% 5.5% 0.9% P16..4: 40.9% 29.5% 18.7% 0.0% 0.0% skip: 4.0%
x264 [info]: mb B I16..4: 0.0% 0.4% 0.1% B16..8: 42.4% 7.7% 2.1% direct: 3.9% skip:43.4% L0:43.4% L1:47.2% BI: 9.4%
x264 [info]: 8x8 transform intra:77.0% inter:59.3%
x264 [info]: coded y,uvDC,uvAC intra: 87.0% 89.0% 72.2% inter: 20.8% 20.0% 5.0%
x264 [info]: i16 v,h,dc,p: 37% 11% 8% 44%
x264 [info]: i8 v,h,dc,ddl,ddr,vr,hd,vl,hu: 21% 12% 19% 5% 8% 9% 8% 8% 8%
x264 [info]: i4 v,h,dc,ddl,ddr,vr,hd,vl,hu: 25% 14% 12% 6% 10% 9% 9% 7% 7%
x264 [info]: i8c dc,h,v,p: 49% 18% 21% 12%
x264 [info]: Weighted P-Frames: Y:3.1% UV:2.2%
x264 [info]: ref P L0: 45.6% 10.0% 18.6% 7.1% 6.5% 4.6% 4.6% 2.8% 0.2% 0.0%
x264 [info]: ref B L0: 74.3% 12.5% 6.1% 3.1% 2.2% 1.3% 0.6%
x264 [info]: ref B L1: 92.2% 7.8%
x264 [info]: kb/s:2866.68
encoded 237911 frames, 2.77 fps, 2866.67 kb/s
GeneralFormat : MPEG-4Format profile : Base MediaCodec ID : isom (isom)File size : 3.47 GiBDuration : 2 h 45 minOverall bit rate mode : VariableOverall bit rate : 3 002 kb/sMovie name : Джанго освобожденный | KinoGadgetPerformer : Квентин ТарантиноDirector : Квентин ТарантиноActor : Джейми Фокс / Кристоф Вальц / Леонардо ДиКаприо / Керри Вашингтон / Сэмюэл Л. Джексон / Джона Хилл / Эмбер Тэмблин / Уолтон Гоггинс / Джеймс Римар / Дон Джонсон / Зои Белл / Роберт Кэрредин / Брюс Дерн / Майкл Паркс / Джеймс Руссо / Том Савини / Гэри ГраббсScreenplay by : Квентин ТарантиноProducer : Реджинальд Хадлин / Пилар Савон / Стейси ШерGenre : Adventure, Comedy, Drama, WesternContentType : Short FilmRecorded date : 2012Encoded date : UTC 2017-03-05 06:04:02Tagged date : UTC 2017-03-05 06:16:53Cover : YesContentRating : mpaa|R|400|LongDescription : Эксцентричный охотник за головами, также известный как «Дантист», промышляет отстрелом самых опасных преступников. Работенка пыльная, и без надежного помощника ему не обойтись. Но как найти такого и желательно не очень дорогого? Беглый раб по имени Джанго — прекрасная кандидатура. Правда, у нового помощника свои мотивы — кое с чем надо разобраться…HDVideo : Yes

VideoID : 1Format : AVCFormat/Info : Advanced Video CodecFormat profile : [email protected] settings, CABAC : YesFormat settings, ReFrames : 8 framesCodec ID : avc1Codec ID/Info : Advanced Video CodingDuration : 2 h 45 minBit rate : 2 867 kb/sMaximum bit rate : 15.9 Mb/sWidth : 1 280 pixelsHeight : 534 pixelsDisplay aspect ratio : 2.40:1Frame rate mode : ConstantFrame rate : 23.976 (24000/1001) FPSColor space : YUVChroma subsampling : 4:2:0Bit depth : 8 bitsScan type : ProgressiveBits/(Pixel*Frame) : 0.175Stream size : 3.31 GiB (95%)Writing library : x264 core 148 r2638 7599210Encoding settings : cabac=1 / ref=8 / deblock=1:-2:-1 / analyse=0x3:0x113 / me=umh / subme=7 / psy=1 / psy_rd=1.00:0.00 / mixed_ref=1 / me_range=32 / chroma_me=1 / trellis=2 / 8x8dct=1 / cqm=0 / deadzone=21,11 / fast_pskip=0 / chroma_qp_offset=-2 / threads=3 / lookahead_threads=1 / sliced_threads=0 / nr=0 / decimate=1 / interlaced=0 / bluray_compat=0 / constrained_intra=0 / bframes=9 / b_pyramid=2 / b_adapt=2 / b_bias=0 / direct=1 / weightb=1 / open_gop=0 / weightp=2 / keyint=250 / keyint_min=25 / scenecut=40 / intra_refresh=0 / rc_lookahead=60 / rc=crf / mbtree=1 / crf=17.5 / qcomp=0.60 / qpmin=0 / qpmax=69 / qpstep=4 / vbv_maxrate=62500 / vbv_bufsize=78125 / crf_max=0.0 / nal_hrd=none / filler=0 / ip_ratio=1.40 / aq=1:1.00Encoded date : UTC 2017-03-04 19:42:19Tagged date : UTC 2017-03-05 06:05:04

AudioID : 2Format : AACFormat/Info : Advanced Audio CodecFormat profile : LCCodec ID : 40Duration : 2 h 45 minBit rate mode : VariableBit rate : 128 kb/sMaximum bit rate : 135 kb/sChannel(s) : 2 channelsChannel positions : Front: L RSampling rate : 48.0 kHzFrame rate : 46.875 FPS (1024 spf)Compression mode : LossyStream size : 151 MiB (4%)Title : Dub [License]Language : RussianEncoded date : UTC 2017-03-04 19:48:07Tagged date : UTC 2017-03-05 06:05:04

TextID : 3Format : Timed TextCodec ID : tx3gDuration : 1 h 40 minBit rate mode : VariableBit rate : 2 b/sStream size : 1.41 KiB (0%)Title : ForcedLanguage : RussianForced : NoEncoded date : UTC 2017-03-05 06:05:04Tagged date : UTC 2017-03-05 06:05:04

Menu00:00:00.000 : 00:00:00.00000:03:36.466 : 00:03:36.46600:12:47.934 : 00:12:47.93400:18:49.420 : 00:18:49.42000:26:48.273 : 00:26:48.27300:31:44.528 : 00:31:44.52800:40:27.133 : 00:40:27.13300:46:05.513 : 00:46:05.51300:52:36.862 : 00:52:36.86200:58:12.823 : 00:58:12.82301:02:20.320 : 01:02:20.32001:12:13.496 : 01:12:13.49601:18:35.794 : 01:18:35.79401:26:08.038 : 01:26:08.03801:34:49.642 : 01:34:49.64201:40:52.380 : 01:40:52.38001:45:34.036 : 01:45:34.03601:50:01.094 : 01:50:01.09401:55:03.980 : 01:55:03.98002:03:54.969 : 02:03:54.96902:08:14.103 : 02:08:14.10302:14:14.380 : 02:14:14.38002:17:28.991 : 02:17:28.99102:22:32.544 : 02:22:32.54402:26:28.530 : 02:26:28.53002:33:00.463 : 02:33:00.46302:35:41.999 : 02:35:41.99902:41:30.931 : 02:41:30.931


Трекер:  [ 05-Мар-2017 09:00 ]

  

Скачать .torrent

Размер .torrent файла 17 KB


Размер: 3.47 GB
Хэш (hash) релиза: a47d17e7b3617f9f277a38254f374fd666a0c7a9

Еще никто не оставлял запись к записи скачать торрент [VIDEO] Джанго освобожденный Django Unchained . Будь первым!

!Обратная связь