Addison-Empezar_De_Nuevo-ES-CD-FLAC-2012-MAHOU | Amanda Troya | Detentionaire (2011– )

Скачать через торрент музыку Yanni Live! The Concert Event бесплатно без регистрации torrent

Статистика раздачи
Размер:  21.77 GB   |    Зарегистрирован:  6 лет 10 месяцев   |    .torrent скачан:  317 раз   |   
Раздают:  1  
   
загрузка...
 
Автор Сообщение

Galfimbul

avatar Galfimbul


Yanni Live! The Concert Event

Год выпуска: 2006
Страна: США | Image Entertainment
Жанр: New Age
Продолжительность: 01:21:16
Режиссер: Джерри МакРейнольдс, Джордж Верас
Исполнители: Янни, Charlie Adams, Michelle Amato, Victor Espinola, Pedro Eustache, Ramon Flores, Ming Freeman, Alfreda Gerald, David Hudson, Hussain Jiffry, Sayaka Katsuki, Dan Landrum, Armen Movsessian, Walter Rodriquez, Samvel Yervinyan

Описание: Янни - великий мультиинструменталист. Родившись в Греции и живя в США, он стал известен во всем мире благодаря потрясающим мелодиям синтезатора и огромного множества различных инструментов. Каждая новая мелодия Янни непохожа на предыдущую. Его стиль разнообразен. У него можно услышать множество интересных совмещений популярных мелодий и классической музыки. Он много пишет для радио и телевидения. Yanni Live! The Concert Event был записан в Mandalay Bay Events Center (Лас Вегас) 6 ноября 2004 года и выпущен на CD и DVD в 2006 году. Этот захватывающий и гипнотизирующий живой концерт был записан 16 камерами высокого качества и 125 каналами цифровой звукозаписи для бриллиантово чистого звука и эффектной звуковой сцены. Для этого концерта Янни собрал многих всемирно известных экстраординарных музыкантов.

Треклист:
1. Creating
2. Standing in Motion
3. Rainmaker
4. Keys to Imagination
5. Enchantment
6. On Sacred Ground
7. Playtime
8. Until the Last Moment
9. If I Could Tell You
10. For All Seasons
11. The Storm
12. Prelude
13. Nostalgia
14. World Dance

Бонус:
Yanni Live! Backstage Pass

Доп. информация:
Кинопоиск: 9.2 (15)
IMDB: 9.7 (74)

Релиз :

Качество: Blu-ray BD-25 Single-Layer Disc
Видео : MPEG-4 AVC / 21499 kbps / 1080i / 29,970 fps / 16:9 / High Profile 4.1
Аудио #1: English DTS-HD MA 5.1 / 48 kHz / 5309 kbps / 24-bit (DTS Core: 5.1 / 48 kHz / 1509 kbps / 24-bit)
Аудио #2: English LPCM 2.0 / 48 kHz / 1536 kbps / 16-bit
 


Disc Title:Disc Size: 23 343 608 919 bytesProtection: AACSBD-Java: NoBDInfo: 0.5.3

Notes:

BDINFO HOME: Cinema Squid http://www.cinemasquid.com/blu-ray/tools/bdinfo

INCLUDES FORUMS REPORT FOR: AVS Forum Blu-ray Audio and Video Specifications Thread http://www.avsforum.com/avs-vb/showthread.php?t=1155731

********************PLAYLIST: 00002.MPLS********************

<--- BEGIN FORUMS PASTE --->

Код:

Total   Video
Title                                                           Codec   Length  Movie Size      Disc Size       Bitrate Bitrate Main Audio Track                          Secondary Audio Track
-----                                                           ------  ------- --------------  --------------  ------- ------- ------------------                        ---------------------
00002.MPLS                                                      AVC     1:21:16 18 369 398 784  23 343 608 919  30,14   21,50   DTS-HD Master 5.1 5309Kbps (48kHz/24-bit) LPCM 2.0 1536Kbps (48kHz/16-bit)[/spoiler]
[code]DISC INFO:

Disc Title:
Disc Size:      23 343 608 919 bytes
Protection:     AACS
BD-Java:        No
BDInfo:         0.5.3

PLAYLIST REPORT:

Name:                   00002.MPLS
Length:                 1:21:16 (h:m:s)
Size:                   18 369 398 784 bytes
Total Bitrate:          30,14 Mbps

VIDEO:

Codec                   Bitrate             Description
-----                   -------             -----------
MPEG-4 AVC Video        21499 kbps          1080i / 29,970 fps / 16:9 / High Profile 4.1

AUDIO:

Codec                           Language        Bitrate         Description
-----                           --------        -------         -----------
DTS-HD Master Audio             English         5309 kbps       5.1 / 48 kHz / 5309 kbps / 24-bit (DTS Core: 5.1 / 48 kHz / 1509 kbps / 24-bit)
LPCM Audio                      English         1536 kbps       2.0 / 48 kHz / 1536 kbps / 16-bit

FILES:

Name            Time In         Length          Size            Total Bitrate
----            -------         ------          ----            -------------
00003.M2TS      0:00:00.000     1:21:16.538     18 369 398 784  30 135

CHAPTERS:

Number          Time In         Length          Avg Video Rate  Max 1-Sec Rate  Max 1-Sec Time  Max 5-Sec Rate  Max 5-Sec Time  Max 10Sec Rate  Max 10Sec Time  Avg Frame Size  Max Frame Size  Max Frame Time
------          -------         ------          --------------  --------------  --------------  --------------  --------------  --------------  --------------  --------------  --------------  --------------
1               0:00:00.000     0:01:28.154     17 048 kbps     27 674 kbps     00:01:15.108    21 221 kbps     00:01:13.506    20 292 kbps     00:01:06.299    71 079 bytes    335 403 bytes   00:00:38.071
2               0:01:28.154     0:01:29.756     24 468 kbps     33 430 kbps     00:02:37.023    27 836 kbps     00:02:36.356    26 534 kbps     00:02:34.988    102 050 bytes   332 066 bytes   00:02:29.182
3               0:02:57.911     0:06:26.619     22 878 kbps     34 782 kbps     00:05:48.881    29 782 kbps     00:08:04.383    28 388 kbps     00:06:54.213    95 420 bytes    331 640 bytes   00:05:59.559
4               0:09:24.530     0:05:49.248     22 229 kbps     33 718 kbps     00:10:59.058    28 709 kbps     00:10:55.755    27 080 kbps     00:09:32.171    92 713 bytes    321 683 bytes   00:11:47.039
5               0:15:13.779     0:04:16.956     21 672 kbps     33 983 kbps     00:18:36.181    29 718 kbps     00:18:33.011    26 965 kbps     00:18:32.244    90 388 bytes    304 199 bytes   00:18:36.381
6               0:19:30.736     0:08:10.489     22 910 kbps     36 188 kbps     00:24:05.877    30 314 kbps     00:24:05.710    28 539 kbps     00:24:03.475    95 555 bytes    286 748 bytes   00:21:03.595
7               0:27:41.226     0:08:12.859     21 532 kbps     33 439 kbps     00:28:36.748    28 254 kbps     00:30:03.735    26 232 kbps     00:30:04.202    89 805 bytes    299 666 bytes   00:28:08.753
8               0:35:54.085     0:06:49.542     20 513 kbps     28 501 kbps     00:40:21.485    24 949 kbps     00:40:19.817    24 224 kbps     00:39:54.992    85 557 bytes    295 525 bytes   00:37:14.165
9               0:42:43.627     0:04:22.595     22 535 kbps     30 714 kbps     00:46:46.537    27 792 kbps     00:46:45.102    26 078 kbps     00:46:46.003    93 988 bytes    323 671 bytes   00:44:59.029
10              0:47:06.223     0:09:30.836     22 294 kbps     36 085 kbps     00:47:38.355    31 604 kbps     00:47:36.753    27 722 kbps     00:50:29.092    92 983 bytes    304 745 bytes   00:48:54.531
11              0:56:37.060     0:06:14.407     21 826 kbps     32 386 kbps     01:01:13.603    28 898 kbps     01:01:13.603    26 276 kbps     01:01:30.586    91 034 bytes    348 320 bytes   01:01:15.238
12              1:02:51.467     0:05:20.486     21 948 kbps     28 550 kbps     01:05:38.868    26 473 kbps     01:05:35.665    25 461 kbps     01:05:33.029    91 543 bytes    279 395 bytes   01:04:01.137
13              1:08:11.954     0:05:29.162     21 866 kbps     31 648 kbps     01:09:08.711    26 429 kbps     01:10:23.619    25 296 kbps     01:12:03.519    91 201 bytes    311 087 bytes   01:10:07.803
14              1:13:41.116     0:04:36.976     20 609 kbps     30 539 kbps     01:17:30.979    26 056 kbps     01:14:36.572    24 922 kbps     01:16:40.395    85 955 bytes    312 922 bytes   01:17:00.482
15              1:18:18.093     0:02:58.444     10 986 kbps     34 625 kbps     01:18:50.092    29 006 kbps     01:18:39.581    27 365 kbps     01:18:34.710    45 830 bytes    428 225 bytes   01:19:13.048

STREAM DIAGNOSTICS:

File            PID             Type            Codec           Language                Seconds                 Bitrate                 Bytes           Packets
----            ---             ----            -----           --------                --------------          --------------          -------------   -----
00003.M2TS      4113 (0x1011)   0x1B            AVC                                     4876,472                21 500                  13 105 279 050  71 309 896
00003.M2TS      4352 (0x1100)   0x86            DTS-HD MA       eng (English)           4876,472                5 309                   3 236 347 636   18 348 765
00003.M2TS      4353 (0x1101)   0x80            LPCM            eng (English)           4876,472                1 542                   940 204 624     5 851 896[/code]
<pre>
<---- END FORUMS PASTE ---->

QUICK SUMMARY:

Disc Title:Disc Size: 23 343 608 919 bytesProtection: AACSBD-Java: NoPlaylist: 00002.MPLSSize: 18 369 398 784 bytesLength: 1:21:16Total Bitrate: 30,14 MbpsVideo: MPEG-4 AVC Video / 21499 kbps / 1080i / 29,970 fps / 16:9 / High Profile 4.1Audio: English / DTS-HD Master Audio / 5.1 / 48 kHz / 5309 kbps / 24-bit (DTS Core: 5.1 / 48 kHz / 1509 kbps / 24-bit)Audio: English / LPCM Audio / 2.0 / 48 kHz / 1536 kbps / 16-bit

********************PLAYLIST: 00004.MPLS********************

<--- BEGIN FORUMS PASTE --->
</pre>
[code]Total   Video
Title                                                           Codec   Length  Movie Size      Disc Size       Bitrate Bitrate Main Audio Track                          Secondary Audio Track
-----                                                           ------  ------- --------------  --------------  ------- ------- ------------------                        ---------------------
00004.MPLS                                                      AVC     0:27:26 4 793 008 128   23 343 608 919  23,29   18,00   DTS-HD Master 5.1 4015Kbps (48kHz/24-bit)[/code]
[code]DISC INFO:

Disc Title:
Disc Size:      23 343 608 919 bytes
Protection:     AACS
BD-Java:        No
BDInfo:         0.5.3

PLAYLIST REPORT:

Name:                   00004.MPLS
Length:                 0:27:26 (h:m:s)
Size:                   4 793 008 128 bytes
Total Bitrate:          23,29 Mbps

VIDEO:

Codec                   Bitrate             Description
-----                   -------             -----------
MPEG-4 AVC Video        17998 kbps          1080i / 29,970 fps / 16:9 / High Profile 4.1

AUDIO:

Codec                           Language        Bitrate         Description
-----                           --------        -------         -----------
DTS-HD Master Audio             English         4015 kbps       5.1 / 48 kHz / 4015 kbps / 24-bit (DTS Core: 5.1 / 48 kHz / 1509 kbps / 24-bit)

FILES:

Name            Time In         Length          Size            Total Bitrate
----            -------         ------          ----            -------------
00006.M2TS      0:00:00.000     0:27:26.511     4 793 008 128   23 288

CHAPTERS:

Number          Time In         Length          Avg Video Rate  Max 1-Sec Rate  Max 1-Sec Time  Max 5-Sec Rate  Max 5-Sec Time  Max 10Sec Rate  Max 10Sec Time  Avg Frame Size  Max Frame Size  Max Frame Time
------          -------         ------          --------------  --------------  --------------  --------------  --------------  --------------  --------------  --------------  --------------  --------------
1               0:00:00.000     0:27:26.511     17 998 kbps     30 801 kbps     00:04:12.952    27 685 kbps     00:03:41.187    27 472 kbps     00:04:12.218    75 068 bytes    441 535 bytes   00:11:50.543

STREAM DIAGNOSTICS:

File            PID             Type            Codec           Language                Seconds                 Bitrate                 Bytes           Packets
----            ---             ----            -----           --------                --------------          --------------          -------------   -----
00006.M2TS      4113 (0x1011)   0x1B            AVC                                     1646,445                17 999                  3 704 291 670   20 161 076
00006.M2TS      4352 (0x1100)   0x86            DTS-HD MA       eng (English)           1646,445                4 015                   826 324 188     4 747 325[/code]
<pre>
<---- END FORUMS PASTE ---->

QUICK SUMMARY:

Disc Title:Disc Size: 23 343 608 919 bytesProtection: AACSBD-Java: NoPlaylist: 00004.MPLSSize: 4 793 008 128 bytesLength: 0:27:26Total Bitrate: 23,29 MbpsVideo: MPEG-4 AVC Video / 17998 kbps / 1080i / 29,970 fps / 16:9 / High Profile 4.1Audio: English / DTS-HD Master Audio / 5.1 / 48 kHz / 4015 kbps / 24-bit (DTS Core: 5.1 / 48 kHz / 1509 kbps / 24-bit)

********************PLAYLIST: 00000.MPLS********************

<--- BEGIN FORUMS PASTE --->
</pre>
[code]Total   Video
Title                                                           Codec   Length  Movie Size      Disc Size       Bitrate Bitrate Main Audio Track                          Secondary Audio Track
-----                                                           ------  ------- --------------  --------------  ------- ------- ------------------                        ---------------------
00000.MPLS                                                      AVC     0:00:22 29 521 920      23 343 608 919  10,61   9,79    DD AC3 5.1 448Kbps[/code]
[code]DISC INFO:

Disc Title:
Disc Size:      23 343 608 919 bytes
Protection:     AACS
BD-Java:        No
BDInfo:         0.5.3

PLAYLIST REPORT:

Name:                   00000.MPLS
Length:                 0:00:22 (h:m:s)
Size:                   29 521 920 bytes
Total Bitrate:          10,61 Mbps

VIDEO:

Codec                   Bitrate             Description
-----                   -------             -----------
MPEG-4 AVC Video        9786 kbps           1080p / 24 fps / 16:9 / High Profile 4.1

AUDIO:

Codec                           Language        Bitrate         Description
-----                           --------        -------         -----------
Dolby Digital Audio             English         448 kbps        5.1 / 48 kHz / 448 kbps / DN -4dB

FILES:

Name            Time In         Length          Size            Total Bitrate
----            -------         ------          ----            -------------
00000.M2TS      0:00:00.000     0:00:07.000     4 294 656       4 908
00001.M2TS      0:00:07.000     0:00:15.250     25 227 264      13 234

CHAPTERS:

Number          Time In         Length          Avg Video Rate  Max 1-Sec Rate  Max 1-Sec Time  Max 5-Sec Rate  Max 5-Sec Time  Max 10Sec Rate  Max 10Sec Time  Avg Frame Size  Max Frame Size  Max Frame Time
------          -------         ------          --------------  --------------  --------------  --------------  --------------  --------------  --------------  --------------  --------------  --------------
1               0:00:00.000     0:00:07.000     4 642 kbps      12 768 kbps     00:00:00.499    4 235 kbps      00:00:00.499    0 kbps          00:00:00.000    24 032 bytes    190 877 bytes   00:00:05.250
2               0:00:07.000     0:00:15.250     12 147 kbps     30 250 kbps     00:00:09.624    24 278 kbps     00:00:07.999    17 741 kbps     00:00:07.749    63 438 bytes    260 083 bytes   00:00:10.000

STREAM DIAGNOSTICS:

File            PID             Type            Codec           Language                Seconds                 Bitrate                 Bytes           Packets
----            ---             ----            -----           --------                --------------          --------------          -------------   -----
00000.M2TS      4113 (0x1011)   0x1B            AVC                                     6,875                   4 723                   4 059 019       22 121
00001.M2TS      4113 (0x1011)   0x1B            AVC                                     15,125                  12 248                  23 157 268      126 059
00001.M2TS      4352 (0x1100)   0x81            AC3             eng (English)           15,125                  453                     856 576         4 780[/code]
<pre>
<---- END FORUMS PASTE ---->

QUICK SUMMARY:

Disc Title:Disc Size: 23 343 608 919 bytesProtection: AACSBD-Java: NoPlaylist: 00000.MPLSSize: 29 521 920 bytesLength: 0:00:22Total Bitrate: 10,61 MbpsVideo: MPEG-4 AVC Video / 9786 kbps / 1080p / 24 fps / 16:9 / High Profile 4.1Audio: English / Dolby Digital Audio / 5.1 / 48 kHz / 448 kbps / DN -4dB
</pre>


Трекер:  [ 28-Июл-2011 19:03 ]

  

Скачать .torrent

Размер .torrent файла 112 KB


Размер: 21.77 GB
Хэш (hash) релиза: 5da9893eb69d0a71c4a9ceefd749dbfd175a75bb

Еще никто не оставлял запись к записи скачать торрент Yanni Live! The Concert Event . Будь первым!

!Обратная связь