Télécharger One Piece 10 - Strong World | Скачать "Миссия: невыполнима 4 / Mission: Impossible - Ghost Protocol (2011) " на большой скорости | J-MELO S06E17 J-Melo In Saitama Part Two 1080p HEVC x265-MeGusta 1 hour

Скачать через торрент [VIDEO] Доктор Стрэндж Doctor Strange бесплатно русская версия torrent активатор

Статистика раздачи
Размер:  2.04 GB   |    Зарегистрирован:  1 год 4 месяца   |    .torrent скачан:  70 раз   |   
Раздают:  1  
   
загрузка...
 
Автор Сообщение

Galfimbul

avatar Galfimbul


Доктор Стрэндж / Doctor Strange
«За гранью сознания лежит новая реальность»
Премьера: 13 октября 2016
Оригинальное название: Doctor Strange
Страна: США
Жанр: фантастика, фэнтези, боевик, приключения
Возраст: 16+

Режиссер: Скотт Дерриксон / Scott Derrickson

В ролях: Бенедикт Камбербэтч, Тильда Суинтон, Мадс Миккельсен, Чиветел Эджиофор, Рэйчел МакАдамс, Бенедикт Вонг, Майкл Стулбарг, Бенджамин Брэтт, Скотт Эдкинс, Зара Питиан

Описание: Страшная автокатастрофа поставила крест на карьере успешного нейрохирурга Доктора Стрэнджа. Отчаявшись, он отправляется в путешествие в поисках исцеления и открывает в себе невероятные способности к трансформации пространства и времени. Теперь он — связующее звено между параллельными измерениями, а его миссия — защищать жителей Земли и противодействовать Злу, какое бы обличие оно ни принимало.

Продолжительность: 01:54:58
Перевод: Дублированный [Лицензия]
Оригинальная дорожка: есть

Автор рипа:

Качество видео: BDRip Исходник: Blu-Ray Remux (1080p) Формат: mp4
Видео кодек: MPEG-4 AVC Аудио кодек: AAC
Видео: 1280x536 (2.40:1) at 23.976 fps, AVC at 2 267 kbps avg, 0.138 bit/pixel
Аудио №1 Rus: 48.0 KHz, AAC, 2 ch, 128.0 Kbps
Аудио №2 Eng: 48.0 KHz, AAC, 2 ch, 128.0 Kbps
Субтитры: русские (форсированные, полные), английские (полные)
Навигация по главам: есть
Размер: 2.04 GiB
avs [info]: 1280x536p 1:1 @ 24000/1001 fps (cfr)
x264 [info]: using SAR=1/1
x264 [info]: using cpu capabilities: MMX2 SSE2Fast SSSE3 Cache64
x264 [info]: profile High, level 4.1
x264 [info]: frame I:1412 Avg QP:12.67 size: 84004
x264 [info]: frame P:34810 Avg QP:16.27 size: 24785
x264 [info]: frame B:129178 Avg QP:18.32 size: 7536
x264 [info]: consecutive B-frames: 2.7% 2.4% 7.1% 15.2% 16.7% 33.9% 10.0% 4.5% 7.4%
x264 [info]: mb I I16..4: 6.0% 71.0% 23.0%
x264 [info]: mb P I16..4: 2.5% 12.5% 2.3% P16..4: 42.9% 23.1% 11.9% 0.0% 0.0% skip: 4.8%
x264 [info]: mb B I16..4: 0.1% 0.9% 0.2% B16..8: 42.2% 7.8% 1.6% direct: 4.8% skip:42.3% L0:43.8% L1:49.0% BI: 7.3%
x264 [info]: 8x8 transform intra:72.3% inter:63.3%
x264 [info]: coded y,uvDC,uvAC intra: 72.5% 79.4% 52.9% inter: 16.7% 19.6% 2.6%
x264 [info]: i16 v,h,dc,p: 22% 16% 8% 54%
x264 [info]: i8 v,h,dc,ddl,ddr,vr,hd,vl,hu: 19% 16% 18% 6% 9% 8% 9% 7% 8%
x264 [info]: i4 v,h,dc,ddl,ddr,vr,hd,vl,hu: 26% 17% 17% 6% 9% 8% 8% 5% 5%
x264 [info]: i8c dc,h,v,p: 51% 20% 19% 10%
x264 [info]: Weighted P-Frames: Y:4.7% UV:2.4%
x264 [info]: ref P L0: 50.5% 8.2% 16.8% 7.4% 5.3% 4.2% 3.3% 2.1% 1.9% 0.3% 0.0%
x264 [info]: ref B L0: 76.5% 11.0% 5.3% 2.6% 1.9% 1.5% 0.8% 0.3%
x264 [info]: ref B L1: 92.2% 7.8%
x264 [info]: kb/s:2267.04
encoded 165400 frames, 2.41 fps, 2267.04 kb/s
GeneralFormat : MPEG-4Format profile : Base MediaCodec ID : isom (isom)File size : 2.04 GiBDuration : 1 h 54 minOverall bit rate mode : VariableOverall bit rate : 2 535 kb/sMovie name : Доктор Стрэндж | KinoGadgetPerformer : Скотт ДерриксонDirector : Скотт ДерриксонActor : Бенедикт Камбербэтч / Тильда Суинтон / Мадс Миккельсен / Чиветел Эджиофор / Рэйчел МакАдамс / Бенедикт Вонг / Майкл Стулбарг / Бенджамин Брэтт / Скотт Эдкинс / Зара ПитианScreenplay by : Джон Спэйтс / Скотт Дерриксон / С. Роберт КаргиллProducer : Виктория Алонсо / Стивен Бруссар / Луис Д’ЭспозитоGenre : Action, AdventureContentType : Short FilmRecorded date : 2016Encoded date : UTC 2017-03-03 15:59:00Tagged date : UTC 2017-03-03 16:12:28Cover : YesContentRating : mpaa|PG-13|300|LongDescription : Страшная автокатастрофа поставила крест на карьере успешного нейрохирурга Доктора Стрэнджа. Отчаявшись, он отправляется в путешествие в поисках исцеления и открывает в себе невероятные способности к трансформации пространства и времени. Теперь он — связующее звено между параллельными измерениями, а его миссия — защищать жителей Земли и противодействовать Злу, какое бы обличие оно ни принимало.HDVideo : Yes

VideoID : 1Format : AVCFormat/Info : Advanced Video CodecFormat profile : [email protected] settings, CABAC : YesFormat settings, ReFrames : 9 framesCodec ID : avc1Codec ID/Info : Advanced Video CodingDuration : 1 h 54 minBit rate : 2 267 kb/sMaximum bit rate : 16.5 Mb/sWidth : 1 280 pixelsHeight : 536 pixelsDisplay aspect ratio : 2.40:1Frame rate mode : ConstantFrame rate : 23.976 (24000/1001) FPSColor space : YUVChroma subsampling : 4:2:0Bit depth : 8 bitsScan type : ProgressiveBits/(Pixel*Frame) : 0.138Stream size : 1.82 GiB (89%)Writing library : x264 core 148 r2638 7599210Encoding settings : cabac=1 / ref=9 / deblock=1:-2:-1 / analyse=0x3:0x113 / me=umh / subme=7 / psy=1 / psy_rd=1.00:0.00 / mixed_ref=1 / me_range=32 / chroma_me=1 / trellis=2 / 8x8dct=1 / cqm=0 / deadzone=21,11 / fast_pskip=0 / chroma_qp_offset=-2 / threads=3 / lookahead_threads=1 / sliced_threads=0 / nr=0 / decimate=1 / interlaced=0 / bluray_compat=0 / constrained_intra=0 / bframes=8 / b_pyramid=2 / b_adapt=2 / b_bias=0 / direct=1 / weightb=1 / open_gop=0 / weightp=2 / keyint=250 / keyint_min=25 / scenecut=40 / intra_refresh=0 / rc_lookahead=60 / rc=crf / mbtree=1 / crf=17.0 / qcomp=0.60 / qpmin=0 / qpmax=69 / qpstep=4 / vbv_maxrate=62500 / vbv_bufsize=78125 / crf_max=0.0 / nal_hrd=none / filler=0 / ip_ratio=1.40 / aq=1:1.00Encoded date : UTC 2017-03-03 08:38:02Tagged date : UTC 2017-03-03 15:59:44

Audio #1ID : 2Format : AACFormat/Info : Advanced Audio CodecFormat profile : LCCodec ID : 40Duration : 1 h 54 minBit rate mode : VariableBit rate : 128 kb/sMaximum bit rate : 135 kb/sChannel(s) : 2 channelsChannel positions : Front: L RSampling rate : 48.0 kHzFrame rate : 46.875 FPS (1024 spf)Compression mode : LossyStream size : 105 MiB (5%)Title : Dub [License]Language : RussianEncoded date : UTC 2017-03-03 08:50:58Tagged date : UTC 2017-03-03 15:59:44

Audio #2ID : 3Format : AACFormat/Info : Advanced Audio CodecFormat profile : LCCodec ID : 40Duration : 1 h 54 minBit rate mode : VariableBit rate : 128 kb/sMaximum bit rate : 135 kb/sChannel(s) : 2 channelsChannel positions : Front: L RSampling rate : 48.0 kHzFrame rate : 46.875 FPS (1024 spf)Compression mode : LossyStream size : 105 MiB (5%)Title : OriginalLanguage : EnglishEncoded date : UTC 2017-03-03 09:10:06Tagged date : UTC 2017-03-03 15:59:44

Text #1ID : 4Format : Timed TextCodec ID : tx3gDuration : 1 h 54 minBit rate mode : VariableBit rate : 0 b/sStream size : 98.0 Bytes (0%)Title : ForcedLanguage : RussianForced : NoEncoded date : UTC 2017-03-03 15:59:43Tagged date : UTC 2017-03-03 15:59:44

Text #2ID : 5Format : Timed TextCodec ID : tx3gDuration : 1 h 54 minBit rate mode : VariableBit rate : 78 b/sStream size : 66.0 KiB (0%)Title : FullLanguage : RussianForced : NoEncoded date : UTC 2017-03-03 15:59:43Tagged date : UTC 2017-03-03 15:59:44

Text #3ID : 6Format : Timed TextCodec ID : tx3gDuration : 1 h 54 minBit rate mode : VariableBit rate : 50 b/sStream size : 41.7 KiB (0%)Title : FullLanguage : EnglishForced : NoEncoded date : UTC 2017-03-03 15:59:44Tagged date : UTC 2017-03-03 15:59:44

Menu00:00:00.000 : 00:00:00.00000:04:34.566 : 00:04:34.56600:10:16.825 : 00:10:16.82500:18:32.153 : 00:18:32.15300:24:37.017 : 00:24:37.01700:31:40.482 : 00:31:40.48200:38:33.811 : 00:38:33.81100:43:16.135 : 00:43:16.13500:48:24.527 : 00:48:24.52700:55:34.498 : 00:55:34.49801:05:04.359 : 01:05:04.35901:12:38.437 : 01:12:38.43701:22:14.346 : 01:22:14.34601:28:28.637 : 01:28:28.63701:35:00.904 : 01:35:00.90401:45:06.509 : 01:45:06.509


Трекер:  [ 03-Мар-2017 19:00 ]

  

Скачать .torrent

Размер .torrent файла 10 KB


Размер: 2.04 GB
Хэш (hash) релиза: 8d01e5374d28eaa56279cfa537d28c1bab38114a

Еще никто не оставлял запись к записи скачать торрент [VIDEO] Доктор Стрэндж Doctor Strange . Будь первым!

!Обратная связь