Fortunata VOSTFR BRrip Film Gratuit | Season 0 Episode 38 Eretria Saves the Day | Condor - Saison 1 - VOSTFR

Скачать через торрент [VIDEO] Фантастические твари и где они обитают Fantastic Beasts and Where to Find Them бесплатно русская версия torrent активатор

Статистика раздачи
Размер:  2.91 GB   |    Зарегистрирован:  1 год 5 месяцев   |    .torrent скачан:  68 раз   |   
Раздают:  1  
   
загрузка...
 
Автор Сообщение

Galfimbul

avatar Galfimbul


Фантастические твари и где они обитают / Fantastic Beasts and Where to Find Them
«Открой новую главу волшебного мира Дж.К.Роулинг»
Премьера: 8 ноября 2016
Оригинальное название: Fantastic Beasts and Where to Find Them
Страна: Великобритания, США
Жанр: фэнтези, приключения, семейный
Возраст: 12+

Режиссер: Дэвид Йейтс / David Yates

В ролях: Эдди Редмэйн, Кэтрин Уотерстон, Дэн Фоглер, Элисон Судол, Колин Фаррелл, Кармен Эджого, Эзра Миллер, Саманта Мортон, Рон Перлман, Джон Войт, Доминик Типпер

Описание: Поиск и изучение необычайных волшебных существ приводят магозоолога Ньюта Саламандера в Нью-Йорк. Скорее всего, он отбыл бы на поезде дальше, если бы не не маг (так в Америке называют магглов) по имени Якоб, оставленный в неположенном месте магический чемодан и побег из него фантастических животных Ньюта.

Продолжительность: 02:12:53
Перевод: Дублированный [Лицензия]
Оригинальная дорожка: есть

Автор рипа:

Качество видео: BDRip Исходник: Blu-Ray Remux (1080p) Формат: mp4
Видео кодек: MPEG-4 AVC Аудио кодек: AAC
Видео: 1280x534 (2.40:1) at 23.976 fps, AVC at 2 871 kbps avg, 0.175 bit/pixel
Аудио №1 Rus: 48.0 KHz, AAC, 2 ch, 128.0 Kbps
Аудио №2 Eng: 48.0 KHz, AAC, 2 ch, 128.0 Kbps
Субтитры: русские (форсированные, полные), английские (полные)
Навигация по главам: есть
Размер: 2.91 GiB
avs [info]: 1280x534p 1:1 @ 24000/1001 fps (cfr)
x264 [info]: using SAR=1/1
x264 [info]: using cpu capabilities: MMX2 SSE2Fast SSSE3 Cache64
x264 [info]: profile High, level 4.1
x264 [info]: frame I:1650 Avg QP:12.81 size:122050
x264 [info]: frame P:37428 Avg QP:16.44 size: 33664
x264 [info]: frame B:152067 Avg QP:18.34 size: 9202
x264 [info]: consecutive B-frames: 1.7% 2.1% 4.5% 13.1% 19.3% 39.8% 9.5% 2.1% 2.5% 3.6% 1.8%
x264 [info]: mb I I16..4: 4.7% 75.6% 19.7%
x264 [info]: mb P I16..4: 1.0% 10.2% 1.2% P16..4: 38.1% 28.1% 15.1% 0.0% 0.0% skip: 6.3%
x264 [info]: mb B I16..4: 0.1% 1.0% 0.1% B16..8: 41.2% 8.6% 1.9% direct: 5.1% skip:42.1% L0:42.4% L1:48.8% BI: 8.8%
x264 [info]: 8x8 transform intra:81.3% inter:62.1%
x264 [info]: coded y,uvDC,uvAC intra: 84.0% 84.4% 62.1% inter: 23.1% 24.3% 6.8%
x264 [info]: i16 v,h,dc,p: 35% 12% 6% 48%
x264 [info]: i8 v,h,dc,ddl,ddr,vr,hd,vl,hu: 21% 13% 21% 5% 8% 8% 8% 8% 8%
x264 [info]: i4 v,h,dc,ddl,ddr,vr,hd,vl,hu: 26% 15% 13% 6% 10% 9% 8% 7% 6%
x264 [info]: i8c dc,h,v,p: 57% 16% 19% 7%
x264 [info]: Weighted P-Frames: Y:5.5% UV:1.6%
x264 [info]: ref P L0: 49.3% 11.2% 18.8% 6.5% 5.3% 3.5% 3.3% 1.9% 0.2% 0.0%
x264 [info]: ref B L0: 78.4% 11.5% 4.9% 2.4% 1.6% 0.9% 0.4%
x264 [info]: ref B L1: 92.9% 7.1%
x264 [info]: kb/s:2870.64
encoded 191145 frames, 1.97 fps, 2870.64 kb/s
GeneralFormat : MPEG-4Format profile : Base MediaCodec ID : isom (isom)File size : 2.91 GiBDuration : 2 h 12 minOverall bit rate mode : VariableOverall bit rate : 3 138 kb/sMovie name : Фантастические твари и где они обитаютPerformer : Дэвид ЙейтсDirector : Дэвид ЙейтсActor : Эдди Редмэйн / Кэтрин Уотерстон / Дэн Фоглер / Элисон Судол / Колин Фаррелл / Кармен Эджого / Эзра Миллер / Саманта Мортон / Рон Перлман / Джон Войт / Доминик ТипперScreenplay by : Дж.К. РоулингProducer : Нил Блэр / Дэвид Хейман / Стивен КловзGenre : Adventure, FamilyContentType : Short FilmRecorded date : 2016Encoded date : UTC 2017-03-02 12:27:24Tagged date : UTC 2017-03-02 12:51:18Cover : YesContentRating : mpaa|PG-13|300|LongDescription : Поиск и изучение необычайных волшебных существ приводят магозоолога Ньюта Саламандера в Нью-Йорк. Скорее всего, он отбыл бы на поезде дальше, если бы не не маг (так в Америке называют магглов) по имени Якоб, оставленный в неположенном месте магический чемодан и побег из него фантастических животных Ньюта.HDVideo : Yes

VideoID : 1Format : AVCFormat/Info : Advanced Video CodecFormat profile : [email protected] settings, CABAC : YesFormat settings, ReFrames : 8 framesCodec ID : avc1Codec ID/Info : Advanced Video CodingDuration : 2 h 12 minBit rate : 2 871 kb/sMaximum bit rate : 15.2 Mb/sWidth : 1 280 pixelsHeight : 534 pixelsDisplay aspect ratio : 2.40:1Frame rate mode : ConstantFrame rate : 23.976 (24000/1001) FPSColor space : YUVChroma subsampling : 4:2:0Bit depth : 8 bitsScan type : ProgressiveBits/(Pixel*Frame) : 0.175Stream size : 2.66 GiB (91%)Writing library : x264 core 148 r2638 7599210Encoding settings : cabac=1 / ref=8 / deblock=1:-1:-1 / analyse=0x3:0x113 / me=umh / subme=7 / psy=1 / psy_rd=1.00:0.00 / mixed_ref=1 / me_range=32 / chroma_me=1 / trellis=2 / 8x8dct=1 / cqm=0 / deadzone=21,11 / fast_pskip=0 / chroma_qp_offset=-2 / threads=3 / lookahead_threads=1 / sliced_threads=0 / nr=0 / decimate=1 / interlaced=0 / bluray_compat=0 / constrained_intra=0 / bframes=10 / b_pyramid=2 / b_adapt=2 / b_bias=0 / direct=1 / weightb=1 / open_gop=0 / weightp=2 / keyint=250 / keyint_min=25 / scenecut=40 / intra_refresh=0 / rc_lookahead=60 / rc=crf / mbtree=1 / crf=17.0 / qcomp=0.60 / qpmin=0 / qpmax=69 / qpstep=4 / vbv_maxrate=62500 / vbv_bufsize=78125 / crf_max=0.0 / nal_hrd=none / filler=0 / ip_ratio=1.40 / aq=1:1.00Encoded date : UTC 2017-03-02 10:51:21Tagged date : UTC 2017-03-02 12:28:15

Audio #1ID : 2Format : AACFormat/Info : Advanced Audio CodecFormat profile : LCCodec ID : 40Duration : 2 h 12 minBit rate mode : VariableBit rate : 128 kb/sMaximum bit rate : 135 kb/sChannel(s) : 2 channelsChannel positions : Front: L RSampling rate : 48.0 kHzFrame rate : 46.875 FPS (1024 spf)Compression mode : LossyStream size : 122 MiB (4%)Title : Dub [license]Language : RussianEncoded date : UTC 2017-03-02 11:02:03Tagged date : UTC 2017-03-02 12:28:15

Audio #2ID : 3Format : AACFormat/Info : Advanced Audio CodecFormat profile : LCCodec ID : 40Duration : 2 h 12 minBit rate mode : VariableBit rate : 128 kb/sMaximum bit rate : 135 kb/sChannel(s) : 2 channelsChannel positions : Front: L RSampling rate : 48.0 kHzFrame rate : 46.875 FPS (1024 spf)Compression mode : LossyStream size : 122 MiB (4%)Title : OriginalLanguage : EnglishEncoded date : UTC 2017-03-02 11:17:57Tagged date : UTC 2017-03-02 12:28:15

Text #1ID : 4Format : Timed TextCodec ID : tx3gDuration : 2 h 3 minBit rate mode : VariableBit rate : 3 b/sStream size : 2.58 KiB (0%)Title : ForcedLanguage : RussianForced : NoEncoded date : UTC 2017-03-02 12:28:15Tagged date : UTC 2017-03-02 12:28:15

Text #2ID : 5Format : Timed TextCodec ID : tx3gDuration : 2 h 12 minBit rate mode : VariableBit rate : 74 b/sStream size : 71.6 KiB (0%)Title : FullLanguage : RussianForced : NoEncoded date : UTC 2017-03-02 12:28:15Tagged date : UTC 2017-03-02 12:28:15

Text #3ID : 6Format : Timed TextCodec ID : tx3gDuration : 2 h 12 minBit rate mode : VariableBit rate : 54 b/sStream size : 52.6 KiB (0%)Title : FullLanguage : EnglishForced : NoEncoded date : UTC 2017-03-02 12:28:15Tagged date : UTC 2017-03-02 12:28:15

Menu00:00:00.000 : 00:00:00.00000:08:40.270 : 00:08:40.27000:18:55.718 : 00:18:55.71800:28:23.660 : 00:28:23.66000:38:34.187 : 00:38:34.18700:48:08.594 : 00:48:08.59400:58:19.246 : 00:58:19.24601:09:14.692 : 01:09:14.69201:17:26.392 : 01:17:26.39201:29:33.660 : 01:29:33.66001:38:02.085 : 01:38:02.08501:50:27.871 : 01:50:27.87101:59:04.471 : 01:59:04.47102:04:11.944 : 02:04:11.944


Трекер:  [ 02-Мар-2017 15:30 ]

  

Скачать .torrent

Размер .torrent файла 15 KB


Размер: 2.91 GB
Хэш (hash) релиза: 14d5afa14c40ffacf4fd74b02695662a2eae6088

Еще никто не оставлял запись к записи скачать торрент [VIDEO] Фантастические твари и где они обитают Fantastic Beasts and Where to Find Them . Будь первым!

!Обратная связь