Selected Topics In Inorganic Chemistry By Tuli Madan | Мелодрама | BD Hitsugi no Chaika : Avenging Battle Subtitle Indonesia

Скачать через торрент [VIDEO] Трое в лодке, не считая собаки бесплатно русская версия torrent активатор

Статистика раздачи
Размер:  608 MB   |    Зарегистрирован:  1 год 4 месяца   |    .torrent скачан:  39 раз   |   
Раздают:  1  
   
загрузка...
 
Автор Сообщение

Galfimbul

avatar Galfimbul


Трое в лодке, не считая собаки (2 части)

Год выпуска: 1979
Страна: СССР
Жанр: мюзикл, комедия
Продолжительность: первая часть - 01:06:24 и вторая часть - 01:06:24
Перевод: не требуется
Cубтитры: нет
Режиссер: Наум Бирман
В ролях: Андрей Миронов, Михаил Державин, Александр Ширвиндт, Лариса Голубкина, Алина Покровская, Ирина Мазуркевич, Зиновий Гердт, Изиль Заблудовский, Виктор Ильичёв, Кира Крейлис-Петрова, Анна Лисянская, Владимир Ляховицкий, Игорь Окрепилов, Татьяна Пельтцер, Юрий Катин-Ярцев, Григорий Шпигель, Николай Боярский, Ольга Волкова, Михаил Девяткин, Георгий Штиль, Лев Лемке, Ирина Смирнова (Гойер), Анатолий Рудаков, Вера Улик, Файме Юрно, Мария Белкина, Анатолий Попов, Борис Бирман, Роберт Городецкий .
Описание: По одноименной повести Джерома К. Джерома. Однажды трое приятелей-холостяков, лондонских жителей, решили сделаться ближе к природе и отправиться в лодочное путешествие по Темзе, прихватив с собой собачку Монморенси…
Покадровая цифровая реставрация изображения, ремастеринг звука и авторинг проведены объединением «Крупный план».
Релиз группы
Качество: HDRip / рип с BDRip 720p
Формат: MP4
Видео кодек: XviD
Аудио кодек: AAC
Видео: 440x320 AR:1.375 507 kbps 23.976 fps 1 часть
Аудио: 2ch 48 kHz 128 kbps 1 часть
Видео: 440x320 AR:1.375 503 kbps 23.976 fps 2 часть
Аудио: 2ch 48 kHz 128 kbps 2 часть
<div class="sp-wrap">
<div class="sp-head folded">ТХ/MediaInfo</div>
<div class="sp-body">

GeneralComplete name : D:\Torrents\Трое в лодке, не считая собаки.1979.HDRip.XviD.480x.(FullScreen)\Трое в лодке, не считая собаки (1 часть).1979.HDRip.XviD.480x.rip by Frost O.S.mp4Format : MPEG-4Format profile : Base MediaCodec ID : isom (isom)File size : 305 MiBDuration : 1 h 6 minOverall bit rate mode : VariableOverall bit rate : 642 kb/sMovie name : Трое в лодке, не считая собаки (1 часть) 1979 HDRip XviD 480x rip by Frost O SContentType : Short FilmEncoded date : UTC 2017-03-01 18:19:06Tagged date : UTC 2017-03-01 18:19:51Writing application : MkvToMp4 version: 0.224 (x64)Comment : rip by Frost O.S

VideoID : 1Format : MPEG-4 VisualFormat profile : Advanced [email protected] settings, BVOP : YesFormat settings, QPel : NoFormat settings, GMC : No warppointsFormat settings, Matrix : CustomCodec ID : 20Duration : 1 h 6 minBit rate mode : VariableBit rate : 507 kb/sMaximum bit rate : 2 170 kb/sWidth : 440 pixelsHeight : 320 pixelsDisplay aspect ratio : 1.375Frame rate mode : ConstantFrame rate : 23.976 (24000/1001) FPSOriginal frame rate : 23.976 (23976/1000) FPSColor space : YUVChroma subsampling : 4:2:0Bit depth : 8 bitsScan type : ProgressiveCompression mode : LossyBits/(Pixel*Frame) : 0.150Stream size : 241 MiB (79%)Title : avi_GPAC0.5.2_DEV_rev248_g39d5978_masterWriting library : XviD 1.2.1 (UTC 2008-12-04)Language : EnglishTagged date : UTC 2017-03-01 18:19:10

AudioID : 2Format : AACFormat/Info : Advanced Audio CodecFormat profile : LCCodec ID : 40Duration : 1 h 6 minBit rate mode : VariableBit rate : 128 kb/sMaximum bit rate : 134 kb/sChannel(s) : 2 channelsChannel positions : Front: L RSampling rate : 48.0 kHzFrame rate : 46.875 FPS (1024 spf)Compression mode : LossyStream size : 60.8 MiB (20%)Language : RussianDefault : YesAlternate group : 1Encoded date : UTC 2017-03-01 18:19:09Tagged date : UTC 2017-03-01 18:19:10
</div>
</div>
<div class="sp-wrap">
<div class="sp-head folded">ТХ/MediaInfo</div>
<div class="sp-body">

GeneralComplete name : D:\Torrents\Трое в лодке, не считая собаки.1979.HDRip.XviD.480x.(FullScreen)\Трое в лодке, не считая собаки (2 часть).1979.HDRip.XviD.480x.rip by Frost O.S.mp4Format : MPEG-4Format profile : Base MediaCodec ID : isom (isom)File size : 303 MiBDuration : 1 h 6 minOverall bit rate mode : VariableOverall bit rate : 638 kb/sMovie name : Трое в лодке, не считая собаки (2 часть) 1979 HDRip XviD 480x rip by Frost O SContentType : Short FilmEncoded date : UTC 2017-03-01 18:22:35Tagged date : UTC 2017-03-01 18:23:25Writing application : MkvToMp4 version: 0.224 (x64)Comment : rip by Frost O.S

VideoID : 1Format : MPEG-4 VisualFormat profile : Advanced [email protected] settings, BVOP : YesFormat settings, QPel : NoFormat settings, GMC : No warppointsFormat settings, Matrix : CustomCodec ID : 20Duration : 1 h 6 minBit rate mode : VariableBit rate : 503 kb/sMaximum bit rate : 2 414 kb/sWidth : 440 pixelsHeight : 320 pixelsDisplay aspect ratio : 1.375Frame rate mode : ConstantFrame rate : 23.976 (24000/1001) FPSOriginal frame rate : 23.976 (23976/1000) FPSColor space : YUVChroma subsampling : 4:2:0Bit depth : 8 bitsScan type : ProgressiveCompression mode : LossyBits/(Pixel*Frame) : 0.149Stream size : 239 MiB (79%)Title : avi_GPAC0.5.2_DEV_rev248_g39d5978_masterWriting library : XviD 1.2.1 (UTC 2008-12-04)Language : EnglishTagged date : UTC 2017-03-01 18:22:42

AudioID : 2Format : AACFormat/Info : Advanced Audio CodecFormat profile : LCCodec ID : 40Duration : 1 h 6 minBit rate mode : VariableBit rate : 128 kb/sMaximum bit rate : 135 kb/sChannel(s) : 2 channelsChannel positions : Front: L RSampling rate : 48.0 kHzFrame rate : 46.875 FPS (1024 spf)Compression mode : LossyStream size : 60.5 MiB (20%)Language : RussianDefault : YesAlternate group : 1Encoded date : UTC 2017-03-01 18:22:40Tagged date : UTC 2017-03-01 18:22:42
</div>
</div>

Трекер:  [ 01-Мар-2017 20:30 ]

  

Скачать .torrent

Размер .torrent файла 12 KB


Размер: 608 MB
Хэш (hash) релиза: 7cb8a21216a6ef0bd6e9dd44037cebe5c067cde5

Торренты, похожие на [VIDEO] Трое в лодке, не считая собаки скачать торрент

Форум Название Автор Размер S L Добавлен
Видео (Фильмы/Клипы) ·· [VIDEO] Трое в лодке, не считая собаки (Наум Бирман) [1979, мюзикл, комедия, BDRip] [MP4, 960x] [Widescreen] Galfimbul 18635330061.74 GB 0 0 1487689811

18:10

21-Фев-17

Видео (Фильмы/Клипы) ·· [VIDEO] Трое в лодке, не считая собаки (Наум Бирман) [1979, мюзикл, комедия, BDRip] [MP4, 960x] [Fullscreen] Galfimbul 17494395531.63 GB 0 0 1487689803

18:10

21-Фев-17

Еще никто не оставлял запись к записи скачать торрент [VIDEO] Трое в лодке, не считая собаки . Будь первым!

!Обратная связь