6.7 01 h 55 minEscape Plan | Tin Star | 01-Trockij-2017-WEB-DL-1080p-[ExYu-Subs]

Скачать через торрент [MULT] Тигрёнок и его друзья бесплатно русская версия torrent активатор

Статистика раздачи
Размер:  244 MB   |    Зарегистрирован:  1 год 4 месяца   |    .torrent скачан:  24 раза   |   
Раздают:  1  
   
загрузка...
 
Автор Сообщение

Galfimbul

avatar Galfimbul


Тигрёнок и его друзьяПо дороге с облаками / Подарок для слона / Клад

Год выпуска: 1984-1985
Страна: СССР
Жанр: мультфильм, короткометражка, детский
Продолжительность: 00:08:52, 00:09:56, 00:09:12
Перевод: Не требуется
Cубтитры: нет
Режиссер: Юрий Бутырин
Роли озвучивали: Зинаида Нарышкина, Клара Румянова, Александр Маркелов, Раиса Мухаметшина, Рогволд Суховерко .

<div class="post-box" style="border-color: #F86926;">1. По дороге с облаками (1984)
Описание: Тигренок и Обезьянка отправились гулять в пасмурный день. По дороге они встретили друзей. То-то весело вместе!
Релиз группы </div>
<div class="post-box" style="border-color: #F86926;">2. Подарок для слона (1984)
Описание: О кознях злой Дюдюки, которая напрасно пыталась поссорить дружных зверей.
Релиз группы </div>
<div class="post-box" style="border-color: #F86926;">3. Клад (1985)
Описание: Компания зверушек в поисках клада обнаружила главное богатство пустыни - воду..
Релиз группы
</div>
Качество:DVDRip / рип с DVD5 Крупный план
Формат: MP4
Видео кодек: H.264
Аудио кодек: AAC
<div class="post-box" style="border-color: #F86926;">По дороге с облаками
Видео: 476x360 AR:4/3 1080 kbps 25 fps
Аудио: 1ch 48 kHz 128 kbps</div>
<div class="post-box" style="border-color: #F86926;">Подарок для слона
Видео: 480x360 AR:4/3 1080 kbps 25 fps
Аудио: 1ch 48 kHz 128 kbps</div>
<div class="post-box" style="border-color: #F86926;">Клад
Видео: 478x360 AR:4/3 1080 kbps 25 fps
Аудио: 1ch 48 kHz 128 kbps</div>
<div class="sp-wrap">
<div class="sp-head folded">Logx264</div>
<div class="sp-body">avs [info]: 476x360p 1:1 @ 25/1 fps (cfr)
x264 [info]: using SAR=1/1
x264 [info]: using cpu capabilities: MMX2 SSE2Fast SSSE3 SSE4.2 AVX FMA3 AVX2 LZCNT BMI2
x264 [info]: profile High, level 4.1

x264 [info]: frame I:97 Avg QP:20.00 size: 23667
x264 [info]: frame P:3301 Avg QP:23.49 size: 9763
x264 [info]: frame B:9890 Avg QP:25.40 size: 3767
x264 [info]: consecutive B-frames: 2.5% 3.2% 12.8% 38.4% 21.1% 14.2% 3.8% 2.6% 1.4%
x264 [info]: mb I I16..4: 4.9% 68.8% 26.2%
x264 [info]: mb P I16..4: 2.1% 12.3% 3.1% P16..4: 36.4% 34.8% 10.0% 0.7% 0.1% skip: 0.5%
x264 [info]: mb B I16..4: 0.2% 1.5% 0.4% B16..8: 32.5% 22.8% 4.4% direct:11.6% skip:26.6% L0:43.2% L1:38.4% BI:18.4%
x264 [info]: 8x8 transform intra:70.2% inter:71.7%
x264 [info]: direct mvs spatial:94.7% temporal:5.3%
x264 [info]: coded y,uvDC,uvAC intra: 80.6% 95.2% 77.0% inter: 35.7% 53.5% 14.5%
x264 [info]: i16 v,h,dc,p: 16% 20% 5% 59%
x264 [info]: i8 v,h,dc,ddl,ddr,vr,hd,vl,hu: 10% 12% 5% 9% 12% 10% 14% 11% 18%
x264 [info]: i4 v,h,dc,ddl,ddr,vr,hd,vl,hu: 12% 13% 4% 7% 14% 11% 15% 9% 16%
x264 [info]: i8c dc,h,v,p: 25% 36% 16% 23%
x264 [info]: Weighted P-Frames: Y:41.6% UV:36.4%
x264 [info]: ref P L0: 37.8% 12.5% 13.4% 7.4% 6.1% 5.5% 4.6% 3.1% 2.9% 2.8% 2.8% 1.3% 0.0%
x264 [info]: ref B L0: 77.6% 8.3% 3.7% 2.5% 1.9% 1.8% 1.4% 1.2% 0.9% 0.7%
x264 [info]: ref B L1: 97.3% 2.7%
x264 [info]: kb/s:1080.34

encoded 13288 frames, 23.37 fps, 1080.35 kb/s
General
Complete name : D:\Torrents\Тигрёнок и его друзья.1984-1985.DVDRip.x264.640x\По дороге с облаками.1984.DVDRip.x264.640x.rip by Frost O.S.mp4
Format : MPEG-4
Format profile : Base Media
Codec ID : isom (isom/avc1)
File size : 77.2 MiB
Duration : 8 min 51 s
Overall bit rate : 1 219 kb/s
Movie name : По дороге с облаками 1984 DVDRip x264 640x rip by Frost O S
Genre : Animation
ContentType : Short Film
Encoded date : UTC 2017-03-01 15:38:31
Tagged date : UTC 2017-03-01 15:38:33
Writing application : MkvToMp4 version: 0.224 (x64)
Cover : Yes
Comment : rip by Frost O.S

Video
ID : 1
Format : AVC
Format/Info : Advanced Video Codec
Format profile : [email protected]
Format settings, CABAC : Yes
Format settings, ReFrames : 11 frames
Codec ID : avc1
Codec ID/Info : Advanced Video Coding
Duration : 8 min 51 s
Bit rate : 1 080 kb/s
Maximum bit rate : 2 126 kb/s
Width : 476 pixels
Height : 360 pixels
Display aspect ratio : 4:3
Frame rate mode : Constant
Frame rate : 25.000 FPS
Color space : YUV
Chroma subsampling : 4:2:0
Bit depth : 8 bits
Scan type : Progressive
Bits/(Pixel*Frame) : 0.252
Stream size : 68.5 MiB (89%)
Writing library : x264 core 148 r2705 3f5ed56
Encoding settings : cabac=1 / ref=11 / deblock=1:-1:-1 / analyse=0x3:0x133 / me=umh / subme=11 / psy=1 / psy_rd=0.70:0.00 / mixed_ref=1 / me_range=48 / chroma_me=1 / trellis=2 / 8x8dct=1 / cqm=0 / deadzone=21,11 / fast_pskip=0 / chroma_qp_offset=-2 / threads=6 / lookahead_threads=1 / sliced_threads=0 / nr=0 / decimate=0 / interlaced=0 / bluray_compat=0 / constrained_intra=0 / bframes=8 / b_pyramid=2 / b_adapt=2 / b_bias=0 / direct=3 / weightb=1 / open_gop=0 / weightp=2 / keyint=250 / keyint_min=25 / scenecut=40 / intra_refresh=0 / rc=2pass / mbtree=0 / bitrate=1080 / ratetol=1.0 / qcomp=0.70 / qpmin=0 / qpmax=69 / qpstep=4 / cplxblur=20.0 / qblur=0.5 / ip_ratio=1.40 / pb_ratio=1.30 / aq=2:0.90
Language : English
Encoded date : UTC 2017-03-01 15:38:31
Tagged date : UTC 2017-03-01 15:38:32
Color range : Limited
Color primaries : BT.601 PAL
Transfer characteristics : BT.470 System B, BT.470 System G
Matrix coefficients : BT.601

Audio
ID : 2
Format : AAC
Format/Info : Advanced Audio Codec
Format profile : LC
Codec ID : 40
Duration : 8 min 51 s
Bit rate mode : Constant
Bit rate : 128 kb/s
Channel(s) : 1 channel
Channel positions : Front: C
Sampling rate : 48.0 kHz
Frame rate : 46.875 FPS (1024 spf)
Compression mode : Lossy
Stream size : 8.11 MiB (11%)
Language : Russian
Default : Yes
Alternate group : 1
Encoded date : UTC 2017-03-01 15:38:31
Tagged date : UTC 2017-03-01 15:38:32
</div>
</div>
<div class="sp-wrap">
<div class="sp-head folded">Logx264</div>
<div class="sp-body">avs [info]: 480x360p 1:1 @ 25/1 fps (cfr)
x264 [info]: using SAR=1/1
x264 [info]: using cpu capabilities: MMX2 SSE2Fast SSSE3 SSE4.2 AVX FMA3 AVX2 LZCNT BMI2
x264 [info]: profile High, level 4.1

x264 [info]: frame I:124 Avg QP:19.42 size: 28331
x264 [info]: frame P:3588 Avg QP:22.24 size: 10231
x264 [info]: frame B:11196 Avg QP:23.97 size: 3595
x264 [info]: consecutive B-frames: 2.8% 3.5% 10.4% 32.4% 21.0% 18.2% 6.3% 3.5% 1.9%
x264 [info]: mb I I16..4: 1.4% 74.6% 24.0%
x264 [info]: mb P I16..4: 1.4% 11.6% 1.9% P16..4: 34.4% 36.1% 13.3% 1.0% 0.1% skip: 0.2%
x264 [info]: mb B I16..4: 0.2% 1.3% 0.2% B16..8: 32.1% 24.4% 4.4% direct:14.1% skip:23.3% L0:40.0% L1:36.7% BI:23.4%
x264 [info]: 8x8 transform intra:76.1% inter:71.9%
x264 [info]: direct mvs spatial:96.6% temporal:3.4%
x264 [info]: coded y,uvDC,uvAC intra: 83.7% 96.1% 81.2% inter: 41.7% 52.8% 14.5%
x264 [info]: i16 v,h,dc,p: 15% 12% 5% 69%
x264 [info]: i8 v,h,dc,ddl,ddr,vr,hd,vl,hu: 12% 8% 7% 9% 12% 12% 12% 12% 17%
x264 [info]: i4 v,h,dc,ddl,ddr,vr,hd,vl,hu: 14% 8% 4% 8% 15% 14% 13% 10% 13%
x264 [info]: i8c dc,h,v,p: 32% 30% 17% 20%
x264 [info]: Weighted P-Frames: Y:46.9% UV:37.6%
x264 [info]: ref P L0: 37.1% 14.0% 13.9% 7.9% 5.7% 5.3% 4.2% 2.9% 2.6% 2.5% 2.5% 1.4% 0.0%
x264 [info]: ref B L0: 77.7% 9.9% 3.5% 2.4% 1.7% 1.6% 1.2% 0.9% 0.7% 0.5%
x264 [info]: ref B L1: 96.9% 3.1%
x264 [info]: kb/s:1079.65

encoded 14908 frames, 24.88 fps, 1079.66 kb/s
General
Complete name : D:\Torrents\Тигрёнок и его друзья.1984-1985.DVDRip.x264.640x\Подарок для слона.1984.DVDRip.x264.640x.rip by Frost O.S.mp4
Format : MPEG-4
Format profile : Base Media
Codec ID : isom (isom/avc1)
File size : 86.5 MiB
Duration : 9 min 56 s
Overall bit rate : 1 217 kb/s
Movie name : Подарок для слона 1984 DVDRip x264 640x rip by Frost O S
Genre : Animation
ContentType : Short Film
Encoded date : UTC 2017-03-01 15:39:40
Tagged date : UTC 2017-03-01 15:39:43
Writing application : MkvToMp4 version: 0.224 (x64)
Cover : Yes
Comment : rip by Frost O.S

Video
ID : 1
Format : AVC
Format/Info : Advanced Video Codec
Format profile : [email protected]
Format settings, CABAC : Yes
Format settings, ReFrames : 11 frames
Codec ID : avc1
Codec ID/Info : Advanced Video Coding
Duration : 9 min 56 s
Bit rate : 1 080 kb/s
Maximum bit rate : 2 656 kb/s
Width : 480 pixels
Height : 360 pixels
Display aspect ratio : 4:3
Frame rate mode : Constant
Frame rate : 25.000 FPS
Color space : YUV
Chroma subsampling : 4:2:0
Bit depth : 8 bits
Scan type : Progressive
Bits/(Pixel*Frame) : 0.250
Stream size : 76.7 MiB (89%)
Writing library : x264 core 148 r2705 3f5ed56
Encoding settings : cabac=1 / ref=11 / deblock=1:-1:-1 / analyse=0x3:0x133 / me=umh / subme=11 / psy=1 / psy_rd=0.70:0.00 / mixed_ref=1 / me_range=48 / chroma_me=1 / trellis=2 / 8x8dct=1 / cqm=0 / deadzone=21,11 / fast_pskip=0 / chroma_qp_offset=-2 / threads=6 / lookahead_threads=1 / sliced_threads=0 / nr=0 / decimate=0 / interlaced=0 / bluray_compat=0 / constrained_intra=0 / bframes=8 / b_pyramid=2 / b_adapt=2 / b_bias=0 / direct=3 / weightb=1 / open_gop=0 / weightp=2 / keyint=250 / keyint_min=25 / scenecut=40 / intra_refresh=0 / rc=2pass / mbtree=0 / bitrate=1080 / ratetol=1.0 / qcomp=0.70 / qpmin=0 / qpmax=69 / qpstep=4 / cplxblur=20.0 / qblur=0.5 / ip_ratio=1.40 / pb_ratio=1.30 / aq=2:0.90
Language : English
Encoded date : UTC 2017-03-01 15:39:40
Tagged date : UTC 2017-03-01 15:39:41
Color range : Limited
Color primaries : BT.601 PAL
Transfer characteristics : BT.470 System B, BT.470 System G
Matrix coefficients : BT.601

Audio
ID : 2
Format : AAC
Format/Info : Advanced Audio Codec
Format profile : LC
Codec ID : 40
Duration : 9 min 56 s
Bit rate mode : Constant
Bit rate : 128 kb/s
Channel(s) : 1 channel
Channel positions : Front: C
Sampling rate : 48.0 kHz
Frame rate : 46.875 FPS (1024 spf)
Compression mode : Lossy
Stream size : 9.10 MiB (11%)
Language : Russian
Default : Yes
Alternate group : 1
Encoded date : UTC 2017-03-01 15:39:41
Tagged date : UTC 2017-03-01 15:39:41
</div>
</div>
<div class="sp-wrap">
<div class="sp-head folded">Logx264</div>
<div class="sp-body">avs [info]: 478x360p 1:1 @ 25/1 fps (cfr)
x264 [info]: using SAR=1/1
x264 [info]: using cpu capabilities: MMX2 SSE2Fast SSSE3 SSE4.2 AVX FMA3 AVX2 LZCNT BMI2
x264 [info]: profile High, level 4.1

x264 [info]: frame I:102 Avg QP:20.71 size: 25838
x264 [info]: frame P:3272 Avg QP:23.66 size: 9922
x264 [info]: frame B:10420 Avg QP:25.50 size: 3778
x264 [info]: consecutive B-frames: 2.4% 3.1% 11.2% 33.8% 18.8% 16.4% 6.6% 3.9% 3.8%
x264 [info]: mb I I16..4: 3.0% 74.0% 23.0%
x264 [info]: mb P I16..4: 1.4% 12.9% 2.2% P16..4: 35.6% 35.0% 11.6% 0.9% 0.1% skip: 0.3%
x264 [info]: mb B I16..4: 0.2% 2.1% 0.4% B16..8: 33.0% 23.1% 4.0% direct:11.2% skip:26.1% L0:44.7% L1:38.6% BI:16.7%
x264 [info]: 8x8 transform intra:78.1% inter:72.1%
x264 [info]: direct mvs spatial:96.3% temporal:3.7%
x264 [info]: coded y,uvDC,uvAC intra: 86.2% 96.0% 75.5% inter: 38.1% 51.5% 12.6%
x264 [info]: i16 v,h,dc,p: 22% 16% 5% 58%
x264 [info]: i8 v,h,dc,ddl,ddr,vr,hd,vl,hu: 12% 9% 5% 9% 13% 11% 13% 11% 16%
x264 [info]: i4 v,h,dc,ddl,ddr,vr,hd,vl,hu: 16% 10% 4% 7% 14% 13% 13% 9% 13%
x264 [info]: i8c dc,h,v,p: 24% 37% 14% 25%
x264 [info]: Weighted P-Frames: Y:28.1% UV:21.3%
x264 [info]: ref P L0: 36.9% 12.8% 15.3% 8.5% 5.9% 4.8% 4.2% 3.6% 2.6% 2.3% 2.4% 0.8% 0.0%
x264 [info]: ref B L0: 72.9% 10.3% 4.7% 3.6% 1.9% 2.1% 1.5% 1.7% 0.7% 0.4%
x264 [info]: ref B L1: 96.0% 4.0%
x264 [info]: kb/s:1079.69

encoded 13794 frames, 23.72 fps, 1079.71 kb/s
General
Complete name : D:\Torrents\Тигрёнок и его друзья.1984-1985.DVDRip.x264.640x\Клад.1985.DVDRip.x264.640x.rip by Frost O.S.mp4
Format : MPEG-4
Format profile : Base Media
Codec ID : isom (isom/avc1)
File size : 80.1 MiB
Duration : 9 min 11 s
Overall bit rate : 1 217 kb/s
Movie name : Клад 1985 DVDRip x264 640x rip by Frost O S
Genre : Animation
ContentType : Short Film
Encoded date : UTC 2017-03-01 15:37:28
Tagged date : UTC 2017-03-01 15:37:30
Writing application : MkvToMp4 version: 0.224 (x64)
Cover : Yes
Comment : rip by Frost O.S

Video
ID : 1
Format : AVC
Format/Info : Advanced Video Codec
Format profile : [email protected]
Format settings, CABAC : Yes
Format settings, ReFrames : 11 frames
Codec ID : avc1
Codec ID/Info : Advanced Video Coding
Duration : 9 min 11 s
Bit rate : 1 080 kb/s
Maximum bit rate : 2 210 kb/s
Width : 478 pixels
Height : 360 pixels
Display aspect ratio : 4:3
Frame rate mode : Constant
Frame rate : 25.000 FPS
Color space : YUV
Chroma subsampling : 4:2:0
Bit depth : 8 bits
Scan type : Progressive
Bits/(Pixel*Frame) : 0.251
Stream size : 71.0 MiB (89%)
Writing library : x264 core 148 r2705 3f5ed56
Encoding settings : cabac=1 / ref=11 / deblock=1:0:0 / analyse=0x3:0x133 / me=umh / subme=11 / psy=1 / psy_rd=0.70:0.00 / mixed_ref=1 / me_range=48 / chroma_me=1 / trellis=2 / 8x8dct=1 / cqm=0 / deadzone=21,11 / fast_pskip=0 / chroma_qp_offset=-2 / threads=6 / lookahead_threads=1 / sliced_threads=0 / nr=0 / decimate=0 / interlaced=0 / bluray_compat=0 / constrained_intra=0 / bframes=8 / b_pyramid=2 / b_adapt=2 / b_bias=0 / direct=3 / weightb=1 / open_gop=0 / weightp=2 / keyint=250 / keyint_min=25 / scenecut=40 / intra_refresh=0 / rc=2pass / mbtree=0 / bitrate=1080 / ratetol=1.0 / qcomp=0.70 / qpmin=0 / qpmax=69 / qpstep=4 / cplxblur=20.0 / qblur=0.5 / ip_ratio=1.40 / pb_ratio=1.30 / aq=2:0.90
Language : English
Encoded date : UTC 2017-03-01 15:37:28
Tagged date : UTC 2017-03-01 15:37:29
Color range : Limited
Color primaries : BT.601 PAL
Transfer characteristics : BT.470 System B, BT.470 System G
Matrix coefficients : BT.601

Audio
ID : 2
Format : AAC
Format/Info : Advanced Audio Codec
Format profile : LC
Codec ID : 40
Duration : 9 min 11 s
Bit rate mode : Constant
Bit rate : 128 kb/s
Channel(s) : 1 channel
Channel positions : Front: C
Sampling rate : 48.0 kHz
Frame rate : 46.875 FPS (1024 spf)
Compression mode : Lossy
Stream size : 8.42 MiB (11%)
Language : Russian
Default : Yes
Alternate group : 1
Encoded date : UTC 2017-03-01 15:37:29
Tagged date : UTC 2017-03-01 15:37:29
</div>
</div>


Трекер:  [ 01-Мар-2017 18:00 ]

  

Скачать .torrent

Размер .torrent файла 20 KB


Размер: 244 MB
Хэш (hash) релиза: 9215cad512c4573d8c4029f912b1aebfaad6b549

Еще никто не оставлял запись к записи скачать торрент [MULT] Тигрёнок и его друзья . Будь первым!

!Обратная связь