Add widgets | Back in the Game | The Booze Bombs

Скачать через торрент [VIDEO] Пит и его дракон Petes Dragon бесплатно русская версия torrent активатор

Статистика раздачи
Размер:  1 GB   |    Зарегистрирован:  1 год 4 месяца   |    .torrent скачан:  21 раз   |   
Раздают:  1  
   
загрузка...
 
Автор Сообщение

Galfimbul

avatar Galfimbul


Пит и его дракон / Pete's Dragon
«Some secrets are too big to keep»

Год выпуска: 2016
Страна: Walt Disney Productions
Жанр: фэнтези, приключения, семейный
Продолжительность: 01:42:46
Перевод №1: Русский Профессиональный (полное дублирование) Blu-ray disc EUR
Перевод №2: Украинский Профессиональный (полное дублирование)
Оригинальная дорожка: Есть
Cубтитры: русские (форсированные, полные), английские (полные, SDH)
Режиссер: Дэвид Лоури / David Lowery
В ролях: Брайс Даллас Ховард, Роберт Редфорд, Оакс Фигли, Уна Лоуренс, Уэс Бентли, Карл Урбан, Исайя Уитлок мл., Маркус Хендерсон, Аарон Джексон, Филип Грив и другие .
Описание: В течение многих лет Мистер Мичем забавлял местных детишек сказочными историями о свирепом драконе, обитающим на севере, глубоко в лесах. Для его дочери Грейс все эти истории казались ничем иным как выдумкой, ровно до тех пор, пока она не встретила в лесу маленького мальчика по имени Пит. Пит уже долгое время живет в диком лесу, у него нет ни дома, ни семьи, зато есть замечательный друг — огромный зеленый дракон Эллиот. Грейс решает разгадать историю юного Пита, узнать всю правду о его семье и загадочном драконе, о котором ходит так много слухов и легенд.
Релиз группы
Качество: BDRip / рип с Blu-ray Disc 1080p EUR
Формат: MP4
Видео кодек: H.264
Аудио кодек: AAC
Видео: 960x400 AR:2.40 1000 kbps 23.976 fps
Аудио №1: [Russian] 2ch 48 kHz 128 kbps - Профессиональный (полное дублирование) Blu-ray disc EUR
Аудио №2: [Ukrainian] 2ch 48 kHz 128 kbps - Профессиональный (полное дублирование)
Аудио №3: [English] 2ch 48 kHz 128 kbps - Оригинал
avs [info]: 960x400p 1:1 @ 2997/125 fps (cfr)
x264 [info]: using SAR=1/1
x264 [info]: using cpu capabilities: MMX2 SSE2Fast SSSE3 SSE4.2 AVX FMA3 AVX2 LZCNT BMI2
x264 [info]: profile High, level 4.1

x264 [info]: frame I:1451 Avg QP:15.55 size: 43549
x264 [info]: frame P:34081 Avg QP:20.05 size: 11499
x264 [info]: frame B:112292 Avg QP:21.32 size: 2813
x264 [info]: consecutive B-frames: 3.5% 3.5% 10.0% 21.4% 18.9% 25.7% 6.0% 2.6% 2.9% 2.4% 3.1%
x264 [info]: mb I I16..4: 6.3% 74.8% 18.9%
x264 [info]: mb P I16..4: 1.1% 8.7% 1.1% P16..4: 35.5% 34.5% 8.9% 0.0% 0.0% skip:10.0%
x264 [info]: mb B I16..4: 0.1% 0.8% 0.1% B16..8: 31.8% 13.4% 1.6% direct: 2.4% skip:49.9% L0:40.8% L1:47.7% BI:11.5%
x264 [info]: 8x8 transform intra:78.6% inter:60.8%
x264 [info]: direct mvs spatial:95.9% temporal:4.1%
x264 [info]: coded y,uvDC,uvAC intra: 81.3% 72.6% 40.0% inter: 12.4% 8.6% 3.3%
x264 [info]: i16 v,h,dc,p: 12% 11% 5% 72%
x264 [info]: i8 v,h,dc,ddl,ddr,vr,hd,vl,hu: 9% 8% 5% 9% 13% 14% 13% 13% 15%
x264 [info]: i4 v,h,dc,ddl,ddr,vr,hd,vl,hu: 10% 9% 5% 9% 15% 14% 13% 11% 13%
x264 [info]: i8c dc,h,v,p: 33% 30% 19% 17%
x264 [info]: Weighted P-Frames: Y:9.9% UV:5.2%
x264 [info]: ref P L0: 58.1% 12.6% 13.6% 5.2% 4.6% 3.1% 2.4% 0.2% 0.0%
x264 [info]: ref B L0: 82.4% 9.0% 4.5% 2.0% 1.7% 0.4%
x264 [info]: ref B L1: 95.2% 4.8%
x264 [info]: kb/s:1000.29

encoded 147824 frames, 19.03 fps, 1000.29 kb/s
GeneralComplete name : D:\Torrents\Pete's Dragon.2016.BDRip.x264.960x.rip by Frost O.S.mp4Format : MPEG-4Format profile : Base MediaCodec ID : isom (isom/avc1/iso2)File size : 1.00 GiBDuration : 1 h 42 minOverall bit rate mode : VariableOverall bit rate : 1 399 kb/sMovie name : Pete's Dragon 2016 BDRip x264 960x rip by Frost O SGenre : FantasyContentType : Short FilmEncoded date : UTC 2017-03-01 13:17:49Tagged date : UTC 2017-03-01 13:19:48Writing application : MkvToMp4 version: 0.224 (x64)Cover : YesComment : rip by Frost O.S

VideoID : 1Format : AVCFormat/Info : Advanced Video CodecFormat profile : [email protected] settings, CABAC : YesFormat settings, ReFrames : 7 framesCodec ID : avc1Codec ID/Info : Advanced Video CodingDuration : 1 h 42 minBit rate : 1 000 kb/sMaximum bit rate : 7 428 kb/sWidth : 960 pixelsHeight : 400 pixelsDisplay aspect ratio : 2.40:1Frame rate mode : ConstantFrame rate : 23.976 (24000/1001) FPSOriginal frame rate : 23.976 (23976/1000) FPSColor space : YUVChroma subsampling : 4:2:0Bit depth : 8 bitsScan type : ProgressiveBits/(Pixel*Frame) : 0.109Stream size : 735 MiB (71%)Writing library : x264 core 148 r2705 3f5ed56Encoding settings : cabac=1 / ref=7 / deblock=1:-2:-2 / analyse=0x3:0x113 / me=umh / subme=11 / psy=1 / psy_rd=0.80:0.00 / mixed_ref=1 / me_range=32 / chroma_me=1 / trellis=2 / 8x8dct=1 / cqm=0 / deadzone=21,11 / fast_pskip=0 / chroma_qp_offset=-2 / threads=6 / lookahead_threads=1 / sliced_threads=0 / nr=0 / decimate=0 / interlaced=0 / bluray_compat=0 / constrained_intra=0 / bframes=10 / b_pyramid=2 / b_adapt=2 / b_bias=0 / direct=3 / weightb=1 / open_gop=0 / weightp=2 / keyint=250 / keyint_min=23 / scenecut=40 / intra_refresh=0 / rc=2pass / mbtree=0 / bitrate=1000 / ratetol=1.0 / qcomp=0.65 / qpmin=0 / qpmax=69 / qpstep=4 / cplxblur=20.0 / qblur=0.5 / ip_ratio=1.40 / pb_ratio=1.30 / aq=3:0.70Language : EnglishEncoded date : UTC 2017-03-01 13:17:49Tagged date : UTC 2017-03-01 13:18:37Color range : LimitedColor primaries : BT.709Transfer characteristics : BT.709Matrix coefficients : BT.709

Audio #1ID : 2Format : AACFormat/Info : Advanced Audio CodecFormat profile : LCCodec ID : 40Duration : 1 h 42 minBit rate mode : VariableBit rate : 128 kb/sMaximum bit rate : 135 kb/sChannel(s) : 2 channelsChannel positions : Front: L RSampling rate : 48.0 kHzFrame rate : 46.875 FPS (1024 spf)Compression mode : LossyStream size : 94.1 MiB (9%)Title : Dub_ Blu_ray disc EUR / Dub_ Blu_ray disc EURLanguage : RussianDefault : YesAlternate group : 1Encoded date : UTC 2017-03-01 13:18:04Tagged date : UTC 2017-03-01 13:18:37

Audio #2ID : 3Format : AACFormat/Info : Advanced Audio CodecFormat profile : LCCodec ID : 40Duration : 1 h 42 minBit rate mode : VariableBit rate : 128 kb/sMaximum bit rate : 134 kb/sChannel(s) : 2 channelsChannel positions : Front: L RSampling rate : 48.0 kHzFrame rate : 46.875 FPS (1024 spf)Compression mode : LossyStream size : 94.1 MiB (9%)Title : Dub / DubLanguage : UkrainianDefault : NoAlternate group : 1Encoded date : UTC 2017-03-01 13:18:18Tagged date : UTC 2017-03-01 13:18:37

Audio #3ID : 4Format : AACFormat/Info : Advanced Audio CodecFormat profile : LCCodec ID : 40Duration : 1 h 42 minBit rate mode : VariableBit rate : 128 kb/sMaximum bit rate : 135 kb/sChannel(s) : 2 channelsChannel positions : Front: L RSampling rate : 48.0 kHzFrame rate : 46.875 FPS (1024 spf)Compression mode : LossyStream size : 94.1 MiB (9%)Title : Original / OriginalLanguage : EnglishDefault : NoAlternate group : 1Encoded date : UTC 2017-03-01 13:18:27Tagged date : UTC 2017-03-01 13:18:37

Text #1ID : 5Format : Timed TextMuxing mode : sbtlCodec ID : tx3gDuration : 1 h 28 minBit rate mode : VariableBit rate : 0 b/sStream size : 232 Bytes (0%)Title : forced / forcedLanguage : RussianDefault : YesForced : NoAlternate group : 2Encoded date : UTC 2017-03-01 13:18:37Tagged date : UTC 2017-03-01 13:18:37

Text #2ID : 6Format : Timed TextMuxing mode : sbtlCodec ID : tx3gDuration : 1 h 36 minBit rate mode : VariableBit rate : 54 b/sStream size : 38.5 KiB (0%)Title : Full / FullLanguage : RussianDefault : NoForced : NoAlternate group : 2Encoded date : UTC 2017-03-01 13:18:37Tagged date : UTC 2017-03-01 13:18:37

Text #3ID : 7Format : Timed TextMuxing mode : sbtlCodec ID : tx3gDuration : 1 h 39 minBit rate mode : VariableBit rate : 47 b/sStream size : 34.6 KiB (0%)Title : Full / FullLanguage : EnglishDefault : NoForced : NoAlternate group : 2Encoded date : UTC 2017-03-01 13:18:37Tagged date : UTC 2017-03-01 13:18:37

Text #4ID : 8Format : Timed TextMuxing mode : sbtlCodec ID : tx3gDuration : 1 h 41 minBit rate mode : VariableBit rate : 53 b/sStream size : 39.6 KiB (0%)Title : SDH / SDHLanguage : EnglishDefault : NoForced : NoAlternate group : 2Encoded date : UTC 2017-03-01 13:18:37Tagged date : UTC 2017-03-01 13:18:37


Трекер:  [ 01-Мар-2017 15:30 ]

  

Скачать .torrent

Размер .torrent файла 10 KB


Размер: 1 GB
Хэш (hash) релиза: af52f929b792c8fdd2b5083b277ac329b9b906a8

Торренты, похожие на [VIDEO] Пит и его дракон Petes Dragon скачать торрент

Форум Название Автор Размер S L Добавлен
Видео (Фильмы/Клипы) ·· [VIDEO] Пит и его дракон / Pete's Dragon (Дэвид Лоури / David Lowery) [2016, фэнтези, приключения, семейный, HDRip] [MP4, 480x] Dub Galfimbul 385494334368 MB 0 0 1488375524

16:38

1-Мар-17

Видео (Фильмы/Клипы) ·· [VIDEO] Пит и его дракон / Pete's Dragon (Дэвид Лоури / David Lowery) [2016, фэнтези, приключения, семейный, BDRip] [MP4, 1280x] Galfimbul 17056133631.59 GB 0 0 1480493060

11:04

30-Ноя-16

Еще никто не оставлял запись к записи скачать торрент [VIDEO] Пит и его дракон Petes Dragon . Будь первым!

!Обратная связь