Featured Apps Games of the Day (2018/7/14) | 17 otra vez | Новинки кинопроката 2016

Скачать через торрент [VIDEO] Пит и его дракон Petes Dragon бесплатно русская версия torrent активатор

Статистика раздачи
Размер:  368 MB   |    Зарегистрирован:  1 год 4 месяца   |    .torrent скачан:  21 раз   |   
Раздают:  1  
   
загрузка...
 
Автор Сообщение

Galfimbul

avatar Galfimbul


Пит и его дракон / Pete's Dragon
«Some secrets are too big to keep»

Год выпуска: 2016
Страна: Walt Disney Productions
Жанр: фэнтези, приключения, семейный
Продолжительность: 01:42:46
Перевод: Русский Профессиональный (полное дублирование) Blu-ray disc EUR
Cубтитры: нет
Режиссер: Дэвид Лоури / David Lowery
В ролях: Брайс Даллас Ховард, Роберт Редфорд, Оакс Фигли, Уна Лоуренс, Уэс Бентли, Карл Урбан, Исайя Уитлок мл., Маркус Хендерсон, Аарон Джексон, Филип Грив и другие .
Описание: В течение многих лет Мистер Мичем забавлял местных детишек сказочными историями о свирепом драконе, обитающим на севере, глубоко в лесах. Для его дочери Грейс все эти истории казались ничем иным как выдумкой, ровно до тех пор, пока она не встретила в лесу маленького мальчика по имени Пит. Пит уже долгое время живет в диком лесу, у него нет ни дома, ни семьи, зато есть замечательный друг — огромный зеленый дракон Эллиот. Грейс решает разгадать историю юного Пита, узнать всю правду о его семье и загадочном драконе, о котором ходит так много слухов и легенд.
Релиз группы
Качество: HDRip / рип с BDRip 720p
Формат: MP4
Видео кодек: XviD
Аудио кодек: AAC
Видео: 480x200 AR:2.40 364 kbps 23.976 fps
Аудио: [Russian] 2ch 48 kHz 128 kbps - Профессиональный (полное дублирование) Blu-ray disc EUR
GeneralComplete name : D:\Torrents\Pete's Dragon.2016.HDRip.XviD.480x.rip by Frost O.S.mp4Format : MPEG-4Format profile : Base MediaCodec ID : isom (isom/iso2)File size : 368 MiBDuration : 1 h 42 minOverall bit rate mode : VariableOverall bit rate : 500 kb/sMovie name : Pete's Dragon 2016 HDRip XviD 480x rip by Frost O SGenre : FantasyContentType : Short FilmEncoded date : UTC 2017-03-01 13:27:22Tagged date : UTC 2017-03-01 13:27:58Writing application : MkvToMp4 version: 0.224 (x64)Cover : YesComment : rip by Frost O.S

VideoID : 1Format : MPEG-4 VisualFormat profile : Advanced [email protected] settings, BVOP : YesFormat settings, QPel : NoFormat settings, GMC : No warppointsFormat settings, Matrix : CustomCodec ID : 20Duration : 1 h 42 minBit rate mode : VariableBit rate : 364 kb/sMaximum bit rate : 193 Mb/sWidth : 480 pixelsHeight : 200 pixelsDisplay aspect ratio : 2.40:1Frame rate mode : VariableFrame rate : 23.976 (23976/1000) FPSMinimum frame rate : 11.988 FPSMaximum frame rate : 23.976 FPSColor space : YUVChroma subsampling : 4:2:0Bit depth : 8 bitsScan type : ProgressiveCompression mode : LossyBits/(Pixel*Frame) : 0.158Stream size : 268 MiB (73%)Title : avi_GPAC0.5.2_DEV_rev248_g39d5978_masterWriting library : XviD 1.2.1 (UTC 2008-12-04)Language : EnglishTagged date : UTC 2017-03-01 13:27:27

AudioID : 2Format : AACFormat/Info : Advanced Audio CodecFormat profile : LCCodec ID : 40Duration : 1 h 42 minBit rate mode : VariableBit rate : 128 kb/sMaximum bit rate : 135 kb/sChannel(s) : 2 channelsChannel positions : Front: L RSampling rate : 48.0 kHzFrame rate : 46.875 FPS (1024 spf)Compression mode : LossyStream size : 94.1 MiB (26%)Title : Dub_ Blu_ray EUR / Dub_ Blu_ray EURLanguage : RussianDefault : YesAlternate group : 1Encoded date : UTC 2017-03-01 13:27:24Tagged date : UTC 2017-03-01 13:27:27


Трекер:  [ 01-Мар-2017 15:30 ]

  

Скачать .torrent

Размер .torrent файла 15 KB


Размер: 368 MB
Хэш (hash) релиза: 47f40b995320b87a097dc4dc0dba7490cc346084

Еще никто не оставлял запись к записи скачать торрент [VIDEO] Пит и его дракон Petes Dragon . Будь первым!

!Обратная связь