Mtv Floribama Shore: ... | Bart wird ein Genie Bart The Genius | Jack Ryan Shadow Recruit

Скачать через торрент [MULT] Приключения Буратино бесплатно русская версия torrent активатор

Статистика раздачи
Размер:  374 MB   |    Зарегистрирован:  1 год 4 месяца   |    .torrent скачан:  23 раза   |   
Раздают:  1  
   
загрузка...
 
Автор Сообщение

Galfimbul

avatar Galfimbul


Приключения Буратино

Год выпуска: 1959
Страна: СССР
Жанр: мультфильм
Продолжительность: 01:03:09
Перевод: не требуется
Cубтитры: нет
Режиссеры: Дмитрий Бабиченко, Иван Иванов-Вано
Роли озвучивали: Нина Гуляева, Евгений Весник, Георгий Вицин, Тамара Дмитриева, Маргарита Корабельникова, Елена Понсова, Владимир Лепко, Александр Баранов
Описание: По сказке А. Н. Толстого «Золотой ключик».
Релиз группы
Качество: DVDRip / рип с DVD5 Крупный план, реставрация
Формат: MP4
Видео кодек: H.264
Аудио кодек: AAC
Видео: 480x360 AR:4/3 691 kbps 25 fps
Аудио : 1ch 48 kHz 128 kbps
avs [info]: 480x360p 1:1 @ 25/1 fps (cfr)
x264 [info]: using SAR=1/1
x264 [info]: using cpu capabilities: MMX2 SSE2Fast SSSE3 SSE4.2 AVX FMA3 AVX2 LZCNT BMI2
x264 [info]: profile High, level 4.1

x264 [info]: frame I:646 Avg QP:19.37 size: 25079
x264 [info]: frame P:25184 Avg QP:23.17 size: 6635
x264 [info]: frame B:68907 Avg QP:25.16 size: 2091
x264 [info]: consecutive B-frames: 2.7% 3.9% 12.2% 53.9% 19.1% 6.3% 1.2% 0.9%
x264 [info]: mb I I16..4: 5.1% 59.0% 35.9%
x264 [info]: mb P I16..4: 0.7% 3.4% 2.0% P16..4: 42.9% 32.6% 11.4% 2.4% 0.3% skip: 4.3%
x264 [info]: mb B I16..4: 0.0% 0.3% 0.3% B16..8: 30.0% 13.5% 3.5% direct: 4.0% skip:48.2% L0:44.5% L1:44.4% BI:11.1%
x264 [info]: 8x8 transform intra:55.9% inter:58.9%
x264 [info]: direct mvs spatial:96.0% temporal:4.0%
x264 [info]: coded y,uvDC,uvAC intra: 82.6% 78.2% 54.0% inter: 20.5% 25.8% 6.4%
x264 [info]: i16 v,h,dc,p: 17% 44% 5% 34%
x264 [info]: i8 v,h,dc,ddl,ddr,vr,hd,vl,hu: 8% 9% 6% 11% 14% 12% 14% 11% 15%
x264 [info]: i4 v,h,dc,ddl,ddr,vr,hd,vl,hu: 11% 11% 5% 10% 13% 12% 13% 11% 14%
x264 [info]: i8c dc,h,v,p: 35% 33% 21% 11%
x264 [info]: Weighted P-Frames: Y:46.4% UV:34.2%
x264 [info]: ref P L0: 43.3% 14.0% 12.6% 5.9% 4.9% 4.7% 4.3% 2.5% 2.2% 2.1% 2.2% 1.3% 0.0%
x264 [info]: ref B L0: 78.1% 8.1% 3.9% 2.3% 1.9% 1.8% 1.5% 1.0% 0.8% 0.6%
x264 [info]: ref B L1: 97.2% 2.8%
x264 [info]: kb/s:691.10

encoded 94737 frames, 29.70 fps, 691.10 kb/s

GeneralComplete name : D:\Torrents\Приключения Буратино.1959.DVDRip.x264.640x.rip by Frost O.S.mp4Format : MPEG-4Format profile : Base MediaCodec ID : isom (isom/avc1)File size : 374 MiBDuration : 1 h 3 minOverall bit rate mode : VariableOverall bit rate : 827 kb/sMovie name : Приключения Буратино 1959 DVDRip x264 640x rip by Frost O SGenre : AnimationContentType : Short FilmEncoded date : UTC 2017-02-28 18:55:49Tagged date : UTC 2017-02-28 18:56:15Writing application : MkvToMp4 version: 0.224 (x64)Cover : YesComment : rip by Frost O.S

VideoID : 1Format : AVCFormat/Info : Advanced Video CodecFormat profile : [email protected] settings, CABAC : YesFormat settings, ReFrames : 11 framesCodec ID : avc1Codec ID/Info : Advanced Video CodingDuration : 1 h 3 minBit rate : 691 kb/sMaximum bit rate : 2 936 kb/sWidth : 480 pixelsHeight : 360 pixelsDisplay aspect ratio : 4:3Frame rate mode : ConstantFrame rate : 25.000 FPSColor space : YUVChroma subsampling : 4:2:0Bit depth : 8 bitsScan type : ProgressiveBits/(Pixel*Frame) : 0.160Stream size : 312 MiB (84%)Writing library : x264 core 148 r2705 3f5ed56Encoding settings : cabac=1 / ref=11 / deblock=1:-1:-1 / analyse=0x3:0x133 / me=umh / subme=11 / psy=1 / psy_rd=0.70:0.00 / mixed_ref=1 / me_range=48 / chroma_me=1 / trellis=2 / 8x8dct=1 / cqm=0 / deadzone=21,11 / fast_pskip=0 / chroma_qp_offset=-2 / threads=6 / lookahead_threads=1 / sliced_threads=0 / nr=0 / decimate=0 / interlaced=0 / bluray_compat=0 / constrained_intra=0 / bframes=7 / b_pyramid=2 / b_adapt=2 / b_bias=0 / direct=3 / weightb=1 / open_gop=0 / weightp=2 / keyint=250 / keyint_min=25 / scenecut=40 / intra_refresh=0 / rc_lookahead=40 / rc=2pass / mbtree=1 / bitrate=691 / ratetol=1.0 / qcomp=0.75 / qpmin=0 / qpmax=69 / qpstep=4 / cplxblur=20.0 / qblur=0.5 / ip_ratio=1.40 / aq=1:0.80Language : EnglishEncoded date : UTC 2017-02-28 18:55:49Tagged date : UTC 2017-02-28 18:56:01Color range : LimitedColor primaries : BT.601 PALTransfer characteristics : BT.470 System B, BT.470 System GMatrix coefficients : BT.601

AudioID : 2Format : AACFormat/Info : Advanced Audio CodecFormat profile : LCCodec ID : 40Duration : 1 h 3 minBit rate mode : VariableBit rate : 128 kb/sMaximum bit rate : 135 kb/sChannel(s) : 2 channelsChannel positions : Front: L RSampling rate : 48.0 kHzFrame rate : 46.875 FPS (1024 spf)Compression mode : LossyStream size : 57.8 MiB (15%)Language : RussianDefault : YesAlternate group : 1Encoded date : UTC 2017-02-28 18:55:54Tagged date : UTC 2017-02-28 18:56:01


Трекер:  [ 28-Фев-2017 21:00 ]

  

Скачать .torrent

Размер .torrent файла 15 KB


Размер: 374 MB
Хэш (hash) релиза: 58afba4ff39e0f4e77351e58165fd7c996f7f1a4

Еще никто не оставлял запись к записи скачать торрент [MULT] Приключения Буратино . Будь первым!

!Обратная связь