Government Nonprofit | Read More | Me Before You series

Скачать через торрент [VIDEO] Прометей Prometheus бесплатно русская версия torrent активатор

Статистика раздачи
Размер:  447 MB   |    Зарегистрирован:  1 год 4 месяца   |    .torrent скачан:  30 раз   |   
Раздают:  1  
   
загрузка...
 
Автор Сообщение

Galfimbul

avatar Galfimbul


Прометей / Prometheus

Год выпуска: 2012
Страна: США, Великобритания / Brandywine Productions Ltd.
Жанр: фантастика, триллер, приключения
Продолжительность: 02:03:46
Перевод: Русский Профессиональный (полное дублирование) Blu-ray EUR
Cубтитры: нет
Режиссер: Ридли Скотт / Ridley Scott
В ролях: Нуми Рапас, Майкл Фассбендер, Шарлиз Терон, Идрис Эльба, Гай Пирс, Логан Маршалл-Грин, Шон Харрис, Рейф Сполл, Иман Эллиотт, Бенедикт Вонг, Кейт Дики, Патрик Уилсон, Люси Хатчинсон и другие .
Описание: В поисках сакрального знания группа ученых отправляется в самые темные и неизведанные чертоги вселенной. Именно там, в отдаленных мирах, находясь на пределе своих умственных и физических возможностей, им предстоит вступить в безжалостную схватку за будущее всего человечества...
Релиз группы
Качество: HDRip / рип с BDRip 720p
Формат: MP4
Видео кодек: XviD
Аудио кодек: AAC
Видео: 480x200 AR:2.40 369 kbps 23.976 fps
Аудио: [Russian] 2ch 48 kHz 128 kbps - Профессиональный (полное дублирование) Blu-ray EUR
GeneralComplete name : D:\Torrents\Prometheus.2012.HDRip.XviD.480x.rip by Frost O.S.mp4Format : MPEG-4Format profile : Base MediaCodec ID : isom (isom/iso2)File size : 447 MiBDuration : 2 h 3 minOverall bit rate mode : VariableOverall bit rate : 505 kb/sMovie name : Prometheus 2012 HDRip XviD 480x rip by Frost O SGenre : FantasyContentType : Short FilmEncoded date : UTC 2017-02-28 16:37:06Tagged date : UTC 2017-02-28 16:38:23Writing application : MkvToMp4 version: 0.224 (x64)Cover : YesComment : rip by Frost O.S

VideoID : 1Format : MPEG-4 VisualFormat profile : Advanced [email protected] settings, BVOP : YesFormat settings, QPel : NoFormat settings, GMC : No warppointsFormat settings, Matrix : CustomCodec ID : 20Duration : 2 h 3 minBit rate mode : VariableBit rate : 369 kb/sMaximum bit rate : 3 889 kb/sWidth : 480 pixelsHeight : 200 pixelsDisplay aspect ratio : 2.40:1Frame rate mode : ConstantFrame rate : 23.976 (24000/1001) FPSOriginal frame rate : 23.976 (23976/1000) FPSColor space : YUVChroma subsampling : 4:2:0Bit depth : 8 bitsScan type : ProgressiveCompression mode : LossyBits/(Pixel*Frame) : 0.160Stream size : 327 MiB (73%)Title : avi_GPAC0.5.2_DEV_rev248_g39d5978_masterWriting library : XviD 1.2.1 (UTC 2008-12-04)Language : EnglishTagged date : UTC 2017-02-28 16:37:28

AudioID : 2Format : AACFormat/Info : Advanced Audio CodecFormat profile : LCCodec ID : 40Duration : 2 h 3 minBit rate mode : VariableBit rate : 128 kb/sMaximum bit rate : 135 kb/sChannel(s) : 2 channelsChannel positions : Front: L RSampling rate : 48.0 kHzFrame rate : 46.875 FPS (1024 spf)Compression mode : LossyStream size : 113 MiB (25%)Title : Dub_ Blu_ray EUR / Dub_ Blu_ray EURLanguage : RussianDefault : YesAlternate group : 1Encoded date : UTC 2017-02-28 16:37:26Tagged date : UTC 2017-02-28 16:37:28


Трекер:  [ 28-Фев-2017 19:00 ]

  

Скачать .torrent

Размер .torrent файла 18 KB


Размер: 447 MB
Хэш (hash) релиза: 5ea84d4129caf5c2cfa3a01556938325f11a7b4d

Еще никто не оставлял запись к записи скачать торрент [VIDEO] Прометей Prometheus . Будь первым!

!Обратная связь