Tokki Scans | Short Stories | 日本人美人ヌード無修正の写真9 日本人美人ヌード無修正の写真9

Скачать через торрент [VIDEO] Прометей Prometheus бесплатно русская версия torrent активатор

Статистика раздачи
Размер:  2.06 GB   |    Зарегистрирован:  1 год 4 месяца   |    .torrent скачан:  47 раз   |   
Раздают:  1  
   
загрузка...
 
Автор Сообщение

Galfimbul

avatar Galfimbul


Прометей / Prometheus

Год выпуска: 2012
Страна: США, Великобритания / Brandywine Productions Ltd.
Жанр: фантастика, триллер, приключения
Продолжительность: 02:03:46
Перевод №1: Русский Профессиональный (полное дублирование) Blu-ray EUR
Перевод №2: Украинский Профессиональный (полное дублирование) Blu-ray EUR
Перевод №3: Русский Авторский (одноголосый, закадровый) Сербин
Перевод №4: Русский Авторский (одноголосый, закадровый) Гаврилов
Перевод №5: Русский Авторский (одноголосый, закадровый) Горчаков
Оригинальная дорожка: Есть
Cубтитры: русские, украинские, английские
Режиссер: Ридли Скотт / Ridley Scott
В ролях: Нуми Рапас, Майкл Фассбендер, Шарлиз Терон, Идрис Эльба, Гай Пирс, Логан Маршалл-Грин, Шон Харрис, Рейф Сполл, Иман Эллиотт, Бенедикт Вонг, Кейт Дики, Патрик Уилсон, Люси Хатчинсон и другие .
Описание: В поисках сакрального знания группа ученых отправляется в самые темные и неизведанные чертоги вселенной. Именно там, в отдаленных мирах, находясь на пределе своих умственных и физических возможностей, им предстоит вступить в безжалостную схватку за будущее всего человечества...
Релиз группы
Качество: BDRip / рип с Blu-ray EUR
Формат: MP4
Видео кодек: H.264
Аудио кодек: AAC
Видео: 960x400 AR:2.40 1595 kbps 23.976 fps
Аудио №1: [Russian] 2ch 48 kHz 128 kbps - Профессиональный (полное дублирование) Blu-ray EUR
Аудио №2: [Ukrainian] 2ch 48 kHz 128 kbps - Профессиональный (полное дублирование) Blu-ray EUR
Аудио №3: [Russian] 2ch 48 kHz 128 kbps - Авторский (одноголосый, закадровый) Сербин
Аудио №4: [Russian] 2ch 48 kHz 128 kbps - Авторский (одноголосый, закадровый) Гаврилов
Аудио №5: [Russian] 2ch 48 kHz 128 kbps - Авторский (одноголосый, закадровый) Горчаков
Аудио №6: [English] 2ch 48 kHz 128 kbps - Оригинал
avs [info]: 960x400p 1:1 @ 2997/125 fps (cfr)
x264 [info]: using SAR=1/1
x264 [info]: using cpu capabilities: MMX2 SSE2Fast SSSE3 SSE4.2 AVX FMA3 AVX2 LZCNT BMI2
x264 [info]: profile High, level 4.1

x264 [info]: frame I:1660 Avg QP:14.78 size: 49175
x264 [info]: frame P:40438 Avg QP:18.23 size: 16170
x264 [info]: frame B:135958 Avg QP:20.46 size: 5460
x264 [info]: consecutive B-frames: 2.5% 3.6% 10.6% 23.0% 18.6% 25.8% 6.1% 6.8% 1.7% 1.3%
x264 [info]: mb I I16..4: 8.0% 63.3% 28.6%
x264 [info]: mb P I16..4: 0.7% 6.1% 1.3% P16..4: 35.6% 37.3% 10.4% 0.0% 0.0% skip: 8.5%
x264 [info]: mb B I16..4: 0.0% 0.7% 0.2% B16..8: 34.5% 15.8% 2.4% direct: 4.1% skip:42.4% L0:42.7% L1:45.1% BI:12.3%
x264 [info]: 8x8 transform intra:72.1% inter:54.7%
x264 [info]: direct mvs spatial:96.6% temporal:3.4%
x264 [info]: coded y,uvDC,uvAC intra: 86.7% 76.4% 52.2% inter: 17.6% 12.3% 4.8%
x264 [info]: i16 v,h,dc,p: 14% 16% 7% 63%
x264 [info]: i8 v,h,dc,ddl,ddr,vr,hd,vl,hu: 7% 8% 5% 10% 15% 13% 15% 12% 15%
x264 [info]: i4 v,h,dc,ddl,ddr,vr,hd,vl,hu: 8% 9% 6% 11% 15% 13% 14% 11% 15%
x264 [info]: i8c dc,h,v,p: 37% 29% 17% 16%
x264 [info]: Weighted P-Frames: Y:15.7% UV:9.5%
x264 [info]: ref P L0: 49.8% 9.0% 15.5% 6.7% 4.7% 4.1% 3.5% 2.1% 1.9% 2.1% 0.4% 0.1%
x264 [info]: ref B L0: 75.1% 10.0% 5.9% 2.5% 1.9% 1.6% 1.9% 0.8% 0.4%
x264 [info]: ref B L1: 94.3% 5.7%
x264 [info]: kb/s:1591.99

encoded 178056 frames, 16.17 fps, 1591.99 kb/s
GeneralComplete name : D:\Torrents\Prometheus.2012.BDRip.x264.960x.rip by Frost O.S.mp4Format : MPEG-4Format profile : Base MediaCodec ID : isom (isom/avc1/iso2)File size : 2.06 GiBDuration : 2 h 3 minOverall bit rate mode : VariableOverall bit rate : 2 387 kb/sMovie name : Prometheus 2012 BDRip x264 960x rip by Frost O SGenre : FantasyContentType : Short FilmEncoded date : UTC 2017-02-28 16:22:56Tagged date : UTC 2017-02-28 16:27:23Writing application : MkvToMp4 version: 0.224 (x64)Cover : YesComment : rip by Frost O.S

VideoID : 1Format : AVCFormat/Info : Advanced Video CodecFormat profile : [email protected] settings, CABAC : YesFormat settings, ReFrames : 10 framesCodec ID : avc1Codec ID/Info : Advanced Video CodingDuration : 2 h 3 minBit rate : 1 595 kb/sMaximum bit rate : 22.3 Mb/sWidth : 960 pixelsHeight : 400 pixelsDisplay aspect ratio : 2.40:1Frame rate mode : ConstantFrame rate : 23.976 (24000/1001) FPSOriginal frame rate : 23.976 (23976/1000) FPSColor space : YUVChroma subsampling : 4:2:0Bit depth : 8 bitsScan type : ProgressiveBits/(Pixel*Frame) : 0.173Stream size : 1.38 GiB (67%)Writing library : x264 core 148 r2705 3f5ed56Encoding settings : cabac=1 / ref=10 / deblock=1:-3:-3 / analyse=0x3:0x113 / me=umh / subme=11 / psy=1 / psy_rd=0.95:0.00 / mixed_ref=1 / me_range=32 / chroma_me=1 / trellis=2 / 8x8dct=1 / cqm=0 / deadzone=21,11 / fast_pskip=0 / chroma_qp_offset=-2 / threads=6 / lookahead_threads=1 / sliced_threads=0 / nr=0 / decimate=0 / interlaced=0 / bluray_compat=0 / constrained_intra=0 / bframes=9 / b_pyramid=2 / b_adapt=2 / b_bias=0 / direct=3 / weightb=1 / open_gop=0 / weightp=2 / keyint=250 / keyint_min=23 / scenecut=40 / intra_refresh=0 / rc=2pass / mbtree=0 / bitrate=1595 / ratetol=1.0 / qcomp=0.80 / qpmin=0 / qpmax=69 / qpstep=4 / cplxblur=20.0 / qblur=0.5 / ip_ratio=1.40 / pb_ratio=1.30 / aq=3:0.40Language : EnglishEncoded date : UTC 2017-02-28 16:22:56Tagged date : UTC 2017-02-28 16:24:42Color range : LimitedColor primaries : BT.709Transfer characteristics : BT.709Matrix coefficients : BT.709

Audio #1ID : 2Format : AACFormat/Info : Advanced Audio CodecFormat profile : LCCodec ID : 40Duration : 2 h 3 minBit rate mode : VariableBit rate : 128 kb/sMaximum bit rate : 135 kb/sChannel(s) : 2 channelsChannel positions : Front: L RSampling rate : 48.0 kHzFrame rate : 46.875 FPS (1024 spf)Compression mode : LossyStream size : 113 MiB (5%)Title : Dub_ Blu_ray EUR / Dub_ Blu_ray EURLanguage : RussianDefault : YesAlternate group : 1Encoded date : UTC 2017-02-28 16:23:56Tagged date : UTC 2017-02-28 16:24:42

Audio #2ID : 3Format : AACFormat/Info : Advanced Audio CodecFormat profile : LCCodec ID : 40Duration : 2 h 3 minBit rate mode : VariableBit rate : 128 kb/sMaximum bit rate : 135 kb/sChannel(s) : 2 channelsChannel positions : Front: L RSampling rate : 48.0 kHzFrame rate : 46.875 FPS (1024 spf)Compression mode : LossyStream size : 113 MiB (5%)Title : Dub_ Blu_ray EUR / Dub_ Blu_ray EURLanguage : UkrainianDefault : NoAlternate group : 1Encoded date : UTC 2017-02-28 16:24:04Tagged date : UTC 2017-02-28 16:24:42

Audio #3ID : 4Format : AACFormat/Info : Advanced Audio CodecFormat profile : LCCodec ID : 40Duration : 2 h 3 minBit rate mode : VariableBit rate : 128 kb/sMaximum bit rate : 135 kb/sChannel(s) : 2 channelsChannel positions : Front: L RSampling rate : 48.0 kHzFrame rate : 46.875 FPS (1024 spf)Compression mode : LossyStream size : 113 MiB (5%)Title : VO_ Serbin / VO_ SerbinLanguage : RussianDefault : NoAlternate group : 1Encoded date : UTC 2017-02-28 16:24:12Tagged date : UTC 2017-02-28 16:24:42

Audio #4ID : 5Format : AACFormat/Info : Advanced Audio CodecFormat profile : LCCodec ID : 40Duration : 2 h 3 minBit rate mode : VariableBit rate : 128 kb/sMaximum bit rate : 135 kb/sChannel(s) : 2 channelsChannel positions : Front: L RSampling rate : 48.0 kHzFrame rate : 46.875 FPS (1024 spf)Compression mode : LossyStream size : 113 MiB (5%)Title : VO_ Gavrilov / VO_ GavrilovLanguage : RussianDefault : NoAlternate group : 1Encoded date : UTC 2017-02-28 16:24:18Tagged date : UTC 2017-02-28 16:24:42

Audio #5ID : 6Format : AACFormat/Info : Advanced Audio CodecFormat profile : LCCodec ID : 40Duration : 2 h 3 minBit rate mode : VariableBit rate : 128 kb/sMaximum bit rate : 135 kb/sChannel(s) : 2 channelsChannel positions : Front: L RSampling rate : 48.0 kHzFrame rate : 46.875 FPS (1024 spf)Compression mode : LossyStream size : 113 MiB (5%)Title : VO_ Gorchakov / VO_ GorchakovLanguage : RussianDefault : NoAlternate group : 1Encoded date : UTC 2017-02-28 16:24:25Tagged date : UTC 2017-02-28 16:24:42

Audio #6ID : 7Format : AACFormat/Info : Advanced Audio CodecFormat profile : LCCodec ID : 40Duration : 2 h 3 minBit rate mode : VariableBit rate : 128 kb/sMaximum bit rate : 135 kb/sChannel(s) : 2 channelsChannel positions : Front: L RSampling rate : 48.0 kHzFrame rate : 46.875 FPS (1024 spf)Compression mode : LossyStream size : 113 MiB (5%)Title : Original / OriginalLanguage : EnglishDefault : NoAlternate group : 1Encoded date : UTC 2017-02-28 16:24:33Tagged date : UTC 2017-02-28 16:24:42

Text #1ID : 8Format : Timed TextMuxing mode : sbtlCodec ID : tx3gDuration : 9 min 29 sBit rate mode : VariableBit rate : 8 b/sStream size : 550 Bytes (0%)Title : Sub_forced / Sub_forcedLanguage : RussianDefault : YesForced : NoAlternate group : 2Encoded date : UTC 2017-02-28 16:24:41Tagged date : UTC 2017-02-28 16:24:42

Text #2ID : 9Format : Timed TextMuxing mode : sbtlCodec ID : tx3gDuration : 1 h 56 minBit rate mode : VariableBit rate : 77 b/sStream size : 65.7 KiB (0%)Title : Sub_BD / Sub_BDLanguage : RussianDefault : NoForced : NoAlternate group : 2Encoded date : UTC 2017-02-28 16:24:41Tagged date : UTC 2017-02-28 16:24:42

Text #3ID : 10Format : Timed TextMuxing mode : sbtlCodec ID : tx3gDuration : 1 h 58 minBit rate mode : VariableBit rate : 65 b/sStream size : 56.6 KiB (0%)Title : Sub_voronine / Sub_voronineLanguage : RussianDefault : NoForced : NoAlternate group : 2Encoded date : UTC 2017-02-28 16:24:41Tagged date : UTC 2017-02-28 16:24:42

Text #4ID : 11Format : Timed TextMuxing mode : sbtlCodec ID : tx3gDuration : 1 h 57 minBit rate mode : VariableBit rate : 66 b/sStream size : 57.2 KiB (0%)Title : Sub_107miller / Sub_107millerLanguage : RussianDefault : NoForced : NoAlternate group : 2Encoded date : UTC 2017-02-28 16:24:42Tagged date : UTC 2017-02-28 16:24:42

Text #5ID : 12Format : Timed TextMuxing mode : sbtlCodec ID : tx3gDuration : 1 h 58 minBit rate mode : VariableBit rate : 67 b/sStream size : 57.9 KiB (0%)Title : Sub_Stevvie / Sub_StevvieLanguage : RussianDefault : NoForced : NoAlternate group : 2Encoded date : UTC 2017-02-28 16:24:42Tagged date : UTC 2017-02-28 16:24:42

Text #6ID : 13Format : Timed TextMuxing mode : sbtlCodec ID : tx3gDuration : 9 min 29 sBit rate mode : VariableBit rate : 8 b/sStream size : 545 Bytes (0%)Title : Sub_forced / Sub_forcedLanguage : UkrainianDefault : NoForced : NoAlternate group : 2Encoded date : UTC 2017-02-28 16:24:42Tagged date : UTC 2017-02-28 16:24:42

Text #7ID : 14Format : Timed TextMuxing mode : sbtlCodec ID : tx3gDuration : 1 h 56 minBit rate mode : VariableBit rate : 75 b/sStream size : 64.0 KiB (0%)Title : Sub_full / Sub_fullLanguage : UkrainianDefault : NoForced : NoAlternate group : 2Encoded date : UTC 2017-02-28 16:24:42Tagged date : UTC 2017-02-28 16:24:42

Text #8ID : 15Format : Timed TextMuxing mode : sbtlCodec ID : tx3gDuration : 1 h 56 minBit rate mode : VariableBit rate : 48 b/sStream size : 41.0 KiB (0%)Title : Sub_full / Sub_fullLanguage : EnglishDefault : NoForced : NoAlternate group : 2Encoded date : UTC 2017-02-28 16:24:42Tagged date : UTC 2017-02-28 16:24:42

Text #9ID : 16Format : Timed TextMuxing mode : sbtlCodec ID : tx3gDuration : 1 h 57 minBit rate mode : VariableBit rate : 59 b/sStream size : 51.3 KiB (0%)Title : Sub_SDH / Sub_SDHLanguage : EnglishDefault : NoForced : NoAlternate group : 2Encoded date : UTC 2017-02-28 16:24:42Tagged date : UTC 2017-02-28 16:24:42


Трекер:  [ 28-Фев-2017 18:30 ]

  

Скачать .torrent

Размер .torrent файла 10 KB


Размер: 2.06 GB
Хэш (hash) релиза: 54ecbb88b5e21a71503aed64df05997a33cee464

Торренты, похожие на [VIDEO] Прометей Prometheus скачать торрент

Форум Название Автор Размер S L Добавлен
Видео (Фильмы/Клипы) ·· [VIDEO] Прометей / Prometheus (Ридли Скотт / Ridley Scott) [2012, фантастика, триллер, приключения, HDRip] [MP4, 480x] Dub Galfimbul 468954490447 MB 0 0 1488302875

20:27

28-Фев-17

Видео (Фильмы/Клипы) ·· [VIDEO] Прометей / Prometheus (Ридли Скотт / Ridley Scott) [2012, США, Великобритания, фантастика, триллер, приключения, HDRip][MP4, 800x] L 14278685111.33 GB 0 0 1363070472

09:41

12-Мар-13

Еще никто не оставлял запись к записи скачать торрент [VIDEO] Прометей Prometheus . Будь первым!

!Обратная связь