Classic Bike UK – July 2018 | Con los brazos abiertos (2017) | QuizMaker Pro 2018.2

Скачать через торрент [VIDEO] Фантастические твари и где они обитают Fantastic Beasts and Where to Find Them бесплатно русская версия torrent активатор

Статистика раздачи
Размер:  1.73 GB   |    Зарегистрирован:  1 год 4 месяца   |    .torrent скачан:  41 раз   |   
Раздают:  1  
   
загрузка...
 
Автор Сообщение

Galfimbul

avatar Galfimbul


Фантастические твари и где они обитают / Fantastic Beasts and Where to Find Them
«Открой новую главу волшебного мира Дж.К.Роулинг»

Год выпуска: 2016
Страна: Великобритания, США / Cinesite, Double Negative, Framestore
Жанр: фэнтези, приключения, семейный
Продолжительность: 02:12:52
Перевод №1: Русский Профессиональный (полное дублирование) BD EUR |Лицензия|
Перевод №2: Украинский Профессиональный (полное дублирование)
Оригинальная дорожка: Есть
Cубтитры: русские, английские
Режиссер: Дэвид Йейтс / David Yates
В ролях: Эдди Редмэйн (Newt), Кэтрин Уотерстон (Tina), Дэн Фоглер (Kowalski), Элисон Судол (Queenie), Колин Фаррелл (Graves), Кармен Эджого (Seraphina Picquery), Эзра Миллер (Credence Barebone), Саманта Мортон (Mary Lou), Рон Перлман (Gnarlack), Джон Войт (Shaw Senior), Джонни Депп (Grindelwald), Зои Кравиц (Lestrange) и другие .
Описание: Поиск и изучение необычайных волшебных существ приводят магозоолога Ньюта Саламандера в Нью-Йорк. Скорее всего, он отбыл бы на поезде дальше, если бы не не маг (так в Америке называют магглов) по имени Якоб, оставленный в неположенном месте магический чемодан и побег из него фантастических животных Ньюта.
Релиз группы
Качество: BDRip / рип с Blu-ray Disc EUR
Формат: MP4
Видео кодек: H.264
Аудио кодек: AAC
Видео: 960x400 AR:2.40 1470 kbps 23.976 fps
Аудио №1: [Russian] 2ch 48 kHz 128 kbps - Профессиональный (полное дублирование) BD EUR |Лицензия|
Аудио №2: [Ukrainian] 2ch 48 kHz 128 kbps - Профессиональный (полное дублирование)
Аудио №3: [English] 2ch 48 kHz 128 kbps - Оригинал
avs [info]: 960x400p 1:1 @ 2997/125 fps (cfr)
x264 [info]: using SAR=1/1
x264 [info]: using cpu capabilities: MMX2 SSE2Fast SSSE3 SSE4.2 AVX FMA3 AVX2 LZCNT BMI2
x264 [info]: profile High, level 4.1

x264 [info]: frame I:1662 Avg QP:13.84 size: 61979
x264 [info]: frame P:42487 Avg QP:17.72 size: 16652
x264 [info]: frame B:146996 Avg QP:19.31 size: 4387
x264 [info]: consecutive B-frames: 2.7% 3.2% 9.5% 18.7% 19.3% 30.0% 7.5% 3.1% 2.4% 1.5% 2.0%
x264 [info]: mb I I16..4: 4.6% 76.5% 19.0%
x264 [info]: mb P I16..4: 0.6% 8.9% 1.2% P16..4: 31.4% 37.3% 13.6% 0.0% 0.0% skip: 7.0%
x264 [info]: mb B I16..4: 0.1% 0.8% 0.1% B16..8: 32.1% 19.7% 3.1% direct: 4.0% skip:40.3% L0:41.6% L1:45.2% BI:13.3%
x264 [info]: 8x8 transform intra:81.8% inter:57.7%
x264 [info]: direct mvs spatial:96.9% temporal:3.1%
x264 [info]: coded y,uvDC,uvAC intra: 89.8% 77.7% 53.3% inter: 19.5% 16.0% 9.0%
x264 [info]: i16 v,h,dc,p: 29% 8% 5% 58%
x264 [info]: i8 v,h,dc,ddl,ddr,vr,hd,vl,hu: 10% 7% 6% 10% 14% 14% 13% 13% 14%
x264 [info]: i4 v,h,dc,ddl,ddr,vr,hd,vl,hu: 11% 7% 5% 9% 15% 15% 14% 11% 13%
x264 [info]: i8c dc,h,v,p: 42% 25% 18% 15%
x264 [info]: Weighted P-Frames: Y:11.7% UV:4.8%
x264 [info]: ref P L0: 51.6% 11.1% 17.0% 6.3% 5.3% 3.3% 3.1% 1.9% 0.3% 0.0%
x264 [info]: ref B L0: 77.9% 11.2% 5.1% 2.5% 2.0% 1.0% 0.3%
x264 [info]: ref B L1: 94.9% 5.1%
x264 [info]: kb/s:1460.41

encoded 191145 frames, 16.10 fps, 1460.41 kb/s
GeneralComplete name : D:\Torrents\Fantastic Beasts and Where to Find Them.2016.BDRip.x264.960x.rip by Frost O.S.mp4Format : MPEG-4Format profile : Base MediaCodec ID : isom (isom/avc1/iso2)File size : 1.73 GiBDuration : 2 h 12 minOverall bit rate mode : VariableOverall bit rate : 1 860 kb/sMovie name : Fantastic Beasts and Where to Find Them 2016 BDRip x264 960x rip by Frost O SGenre : FantasyContentType : Short FilmEncoded date : UTC 2017-02-27 15:31:47Tagged date : UTC 2017-02-27 15:37:08Writing application : MkvToMp4 version: 0.224 (x64)Cover : YesComment : rip by Frost O.S

VideoID : 1Format : AVCFormat/Info : Advanced Video CodecFormat profile : [email protected] settings, CABAC : YesFormat settings, ReFrames : 8 framesCodec ID : avc1Codec ID/Info : Advanced Video CodingDuration : 2 h 12 minBit rate : 1 470 kb/sMaximum bit rate : 5 720 kb/sWidth : 960 pixelsHeight : 400 pixelsDisplay aspect ratio : 2.40:1Frame rate mode : ConstantFrame rate : 23.976 (24000/1001) FPSOriginal frame rate : 23.976 (23976/1000) FPSColor space : YUVChroma subsampling : 4:2:0Bit depth : 8 bitsScan type : ProgressiveBits/(Pixel*Frame) : 0.160Stream size : 1.36 GiB (79%)Writing library : x264 core 148 r2705 3f5ed56Encoding settings : cabac=1 / ref=8 / deblock=1:-2:-2 / analyse=0x3:0x113 / me=umh / subme=11 / psy=1 / psy_rd=0.90:0.00 / mixed_ref=1 / me_range=32 / chroma_me=1 / trellis=2 / 8x8dct=1 / cqm=0 / deadzone=21,11 / fast_pskip=0 / chroma_qp_offset=-2 / threads=6 / lookahead_threads=1 / sliced_threads=0 / nr=0 / decimate=0 / interlaced=0 / bluray_compat=0 / constrained_intra=0 / bframes=10 / b_pyramid=2 / b_adapt=2 / b_bias=0 / direct=3 / weightb=1 / open_gop=0 / weightp=2 / keyint=250 / keyint_min=23 / scenecut=40 / intra_refresh=0 / rc=2pass / mbtree=0 / bitrate=1470 / ratetol=1.0 / qcomp=0.70 / qpmin=0 / qpmax=69 / qpstep=4 / cplxblur=20.0 / qblur=0.5 / ip_ratio=1.40 / pb_ratio=1.30 / aq=3:0.80Language : EnglishEncoded date : UTC 2017-02-27 15:31:47Tagged date : UTC 2017-02-27 15:33:56Color range : LimitedColor primaries : BT.709Transfer characteristics : BT.709Matrix coefficients : BT.709

Audio #1ID : 2Format : AACFormat/Info : Advanced Audio CodecFormat profile : LCCodec ID : 40Duration : 2 h 12 minBit rate mode : VariableBit rate : 128 kb/sMaximum bit rate : 135 kb/sChannel(s) : 2 channelsChannel positions : Front: L RSampling rate : 48.0 kHzFrame rate : 46.875 FPS (1024 spf)Compression mode : LossyStream size : 122 MiB (7%)Title : Dub_ BD EUR / Dub_ BD EURLanguage : RussianDefault : YesAlternate group : 1Encoded date : UTC 2017-02-27 15:33:20Tagged date : UTC 2017-02-27 15:33:56

Audio #2ID : 3Format : AACFormat/Info : Advanced Audio CodecFormat profile : LCCodec ID : 40Duration : 2 h 12 minBit rate mode : VariableBit rate : 128 kb/sMaximum bit rate : 135 kb/sChannel(s) : 2 channelsChannel positions : Front: L RSampling rate : 48.0 kHzFrame rate : 46.875 FPS (1024 spf)Compression mode : LossyStream size : 122 MiB (7%)Title : Dub / DubLanguage : UkrainianDefault : NoAlternate group : 1Encoded date : UTC 2017-02-27 15:33:34Tagged date : UTC 2017-02-27 15:33:56

Audio #3ID : 4Format : AACFormat/Info : Advanced Audio CodecFormat profile : LCCodec ID : 40Duration : 2 h 12 minBit rate mode : VariableBit rate : 128 kb/sMaximum bit rate : 135 kb/sChannel(s) : 2 channelsChannel positions : Front: L RSampling rate : 48.0 kHzFrame rate : 46.875 FPS (1024 spf)Compression mode : LossyStream size : 122 MiB (7%)Title : Original / OriginalLanguage : EnglishDefault : NoAlternate group : 1Encoded date : UTC 2017-02-27 15:33:44Tagged date : UTC 2017-02-27 15:33:56

Text #1ID : 5Format : Timed TextMuxing mode : sbtlCodec ID : tx3gDuration : 2 h 12 minBit rate mode : VariableBit rate : 3 b/sStream size : 2.59 KiB (0%)Title : Forced / ForcedLanguage : RussianDefault : YesForced : NoAlternate group : 2Encoded date : UTC 2017-02-27 15:33:56Tagged date : UTC 2017-02-27 15:33:56

Text #2ID : 6Format : Timed TextMuxing mode : sbtlCodec ID : tx3gDuration : 2 h 12 minBit rate mode : VariableBit rate : 74 b/sStream size : 71.9 KiB (0%)Title : Full / FullLanguage : RussianDefault : NoForced : NoAlternate group : 2Encoded date : UTC 2017-02-27 15:33:56Tagged date : UTC 2017-02-27 15:33:56

Text #3ID : 7Format : Timed TextMuxing mode : sbtlCodec ID : tx3gDuration : 2 h 12 minBit rate mode : VariableBit rate : 47 b/sStream size : 45.5 KiB (0%)Title : Full / FullLanguage : EnglishDefault : NoForced : NoAlternate group : 2Encoded date : UTC 2017-02-27 15:33:56Tagged date : UTC 2017-02-27 15:33:56

Text #4ID : 8Format : Timed TextMuxing mode : sbtlCodec ID : tx3gDuration : 2 h 12 minBit rate mode : VariableBit rate : 54 b/sStream size : 52.8 KiB (0%)Title : SDH / SDHLanguage : EnglishDefault : NoForced : NoAlternate group : 2Encoded date : UTC 2017-02-27 15:33:56Tagged date : UTC 2017-02-27 15:33:56

Text #5ID : 9Format : Timed TextMuxing mode : sbtlCodec ID : tx3gDuration : 2 h 12 minBit rate mode : VariableBit rate : 69 b/sStream size : 66.9 KiB (0%)Title : SDH.COLORED / SDH.COLOREDLanguage : EnglishDefault : NoForced : NoAlternate group : 2Encoded date : UTC 2017-02-27 15:33:56Tagged date : UTC 2017-02-27 15:33:56


Трекер:  [ 27-Фев-2017 17:30 ]

  

Скачать .torrent

Размер .torrent файла 17 KB


Размер: 1.73 GB
Хэш (hash) релиза: 2591d4d2f80459c4d2f4a1ad8fa33b1ce9c54bfa

Еще никто не оставлял запись к записи скачать торрент [VIDEO] Фантастические твари и где они обитают Fantastic Beasts and Where to Find Them . Будь первым!

!Обратная связь