Florida-Carribean Architect – Fall 2014 | June 2015 (3) | Přátelé

Скачать через торрент [VIDEO] Фантастические твари и где они обитают Fantastic Beasts and Where to Find Them бесплатно русская версия torrent активатор

Статистика раздачи
Размер:  475 MB   |    Зарегистрирован:  1 год 4 месяца   |    .torrent скачан:  26 раз   |   
Раздают:  1  
   
загрузка...
 
Автор Сообщение

Galfimbul

avatar Galfimbul


Фантастические твари и где они обитают / Fantastic Beasts and Where to Find Them
«Открой новую главу волшебного мира Дж.К.Роулинг»

Год выпуска: 2016
Страна: Великобритания, США / Cinesite, Double Negative, Framestore
Жанр: фэнтези, приключения, семейный
Продолжительность: 02:12:52
Перевод: Русский Профессиональный (полное дублирование) BD EUR |Лицензия|
Cубтитры: нет
Режиссер: Дэвид Йейтс / David Yates
В ролях: Эдди Редмэйн (Newt), Кэтрин Уотерстон (Tina), Дэн Фоглер (Kowalski), Элисон Судол (Queenie), Колин Фаррелл (Graves), Кармен Эджого (Seraphina Picquery), Эзра Миллер (Credence Barebone), Саманта Мортон (Mary Lou), Рон Перлман (Gnarlack), Джон Войт (Shaw Senior), Джонни Депп (Grindelwald), Зои Кравиц (Lestrange) и другие .
Описание: Поиск и изучение необычайных волшебных существ приводят магозоолога Ньюта Саламандера в Нью-Йорк. Скорее всего, он отбыл бы на поезде дальше, если бы не не маг (так в Америке называют магглов) по имени Якоб, оставленный в неположенном месте магический чемодан и побег из него фантастических животных Ньюта.
Релиз группы
Качество: HDRip / рип с BDRip 720p
Формат: MP4
Видео кодек: XviD
Аудио кодек: AAC
Видео: 480x200 AR:2.40 364 kbps 23.976 fps
Аудио: [Russian] 2ch 48 kHz 128 kbps - Профессиональный (полное дублирование) BD EUR |Лицензия|
GeneralComplete name : D:\Torrents\Fantastic Beasts and Where to Find Them.2016.HDRip.XviD.480x.rip by Frost O.S.mp4Format : MPEG-4Format profile : Base MediaCodec ID : isom (isom/iso2)File size : 475 MiBDuration : 2 h 12 minOverall bit rate mode : VariableOverall bit rate : 500 kb/sMovie name : Fantastic Beasts and Where to Find Them 2016 HDRip XviD 480x rip by Frost O SGenre : FantasyContentType : Short FilmEncoded date : UTC 2017-02-27 15:46:39Tagged date : UTC 2017-02-27 15:47:10Writing application : MkvToMp4 version: 0.224 (x64)Cover : YesComment : rip by Frost O.S

VideoID : 1Format : MPEG-4 VisualFormat profile : Advanced [email protected] settings, BVOP : YesFormat settings, QPel : NoFormat settings, GMC : No warppointsFormat settings, Matrix : CustomCodec ID : 20Duration : 2 h 12 minBit rate mode : VariableBit rate : 364 kb/sMaximum bit rate : 2 081 kb/sWidth : 480 pixelsHeight : 200 pixelsDisplay aspect ratio : 2.40:1Frame rate mode : ConstantFrame rate : 23.976 (24000/1001) FPSOriginal frame rate : 23.976 (23976/1000) FPSColor space : YUVChroma subsampling : 4:2:0Bit depth : 8 bitsScan type : ProgressiveCompression mode : LossyBits/(Pixel*Frame) : 0.158Stream size : 346 MiB (73%)Title : avi_GPAC0.5.2_DEV_rev248_g39d5978_masterWriting library : XviD 1.2.1 (UTC 2008-12-04)Language : EnglishTagged date : UTC 2017-02-27 15:46:47

AudioID : 2Format : AACFormat/Info : Advanced Audio CodecFormat profile : LCCodec ID : 40Duration : 2 h 12 minBit rate mode : VariableBit rate : 128 kb/sMaximum bit rate : 135 kb/sChannel(s) : 2 channelsChannel positions : Front: L RSampling rate : 48.0 kHzFrame rate : 46.875 FPS (1024 spf)Compression mode : LossyStream size : 122 MiB (26%)Title : Dub_ BD EUR / Dub_ BD EURLanguage : RussianDefault : YesAlternate group : 1Encoded date : UTC 2017-02-27 15:46:45Tagged date : UTC 2017-02-27 15:46:47


Трекер:  [ 27-Фев-2017 17:30 ]

  

Скачать .torrent

Размер .torrent файла 19 KB


Размер: 475 MB
Хэш (hash) релиза: 07fbdb06cbe7c65cdb3739d8dcc7c8bf96022833

Еще никто не оставлял запись к записи скачать торрент [VIDEO] Фантастические твари и где они обитают Fantastic Beasts and Where to Find Them . Будь первым!

!Обратная связь