Second Opinion FRENCH WEBRIP 2018 | Más detalles | Animation

Скачать через торрент [VIDEO] Служебный роман бесплатно русская версия torrent активатор

Статистика раздачи
Размер:  1.32 GB   |    Зарегистрирован:  1 год 4 месяца   |    .torrent скачан:  39 раз   |   
Раздают:  1  
   
загрузка...
 
Автор Сообщение

Galfimbul

avatar Galfimbul


Служебный роман
Год выпуска: 1977
Страна: СССР
Жанр: мелодрама, комедия
Продолжительность: 01:27:09 + 01:09:30
Режиссер: Эльдар Рязанов
В ролях: Андрей Мягков, Алиса Фрейндлих, Светлана Немоляева, Олег Басилашвили, Лия Ахеджакова, Георгий Бурков, Зоя Исаева, Людмила Иванова, Петр Щербаков, Мария Виноградова
Описание: Анатолий Ефремович Новосельцев, рядовой служащий одного статистического управления, — человек робкий и застенчивый. Для него неплохо бы получить вакантное место зав. отделом, но он не знает, как подступиться к этому делу. Старый приятель Самохвалов советует ему приударить за Людмилой Прокофьевной Калугиной — "сухарём в юбке" и директором заведения…
Качество: HDRip
Формат: MP4
Видео: MPEG4-Visual, 480x360 (4:3), 1080 Kbps, 23.976 fps
Аудио: Русский, AAC, 2 ch, 128 Kbps, 48 KHz
ОбщееПолное имя : D:\Раздачи\Sluzhebnyj.roman.1977.HDRip.480x\Sluzhebnyj.roman.1977.Ep01.HDRip.480x.mp4Формат : MPEG-4Профиль формата : Base Media / Version 2Идентификатор кодека : mp42 (isom/mp42/3gp5)Размер файла : 752 МбайтПродолжительность : 1 ч. 27 м.Режим общего битрейта : ПеременныйОбщий поток : 1206 Кбит/секДата кодирования : UTC 2017-02-25 05:40:45Дата пометки : UTC 2017-02-25 05:40:45

ВидеоИдентификатор : 201Формат : MPEG-4 VisualПрофиль формата : [email protected]Параметр BVOP формата : НетПараметр QPel формата : НетПараметр GMC формата : Без точки переходаПараметр матрицы формата : Default (H.263)Идентификатор кодека : 20Продолжительность : 1 ч. 27 м.Вид битрейта : ПеременныйБитрейт : 1078 Кбит/секМаксимальный битрейт : 6427 Кбит/секШирина : 480 пикселейВысота : 360 пикселейСоотношение сторон : 4:3Режим частоты кадров : ПостоянныйЧастота кадров : 23,976 (24000/1001) кадра/секЦветовое пространство : YUVСубдискретизация насыщенности : 4:2:0Битовая глубина : 8 битТип развёртки : ПрогрессивнаяМетод сжатия : С потерямиБит/(Пиксели*Кадры) : 0.260Размер потока : 672 Мбайт (89%)Библиотека кодирования : Lavc52.30.2Дата кодирования : UTC 2017-02-25 05:40:45Дата пометки : UTC 2017-02-25 05:41:58

АудиоИдентификатор : 101Формат : AACФормат/Информация : Advanced Audio CodecПрофиль формата : LCИдентификатор кодека : 40Продолжительность : 1 ч. 27 м.Вид битрейта : ПеременныйБитрейт : 125 Кбит/секМаксимальный битрейт : 228 Кбит/секКаналы : 2 каналаРасположение каналов : Front: L RЧастота : 48,0 КГцЧастота кадров : 46,875 кадров/сек (1024 spf)Метод сжатия : С потерямиРазмер потока : 78,1 Мбайт (10%)Дата кодирования : UTC 2017-02-25 05:41:46Дата пометки : UTC 2017-02-25 05:41:58

Прочее #1Идентификатор : 2Тип : Object descriptionФормат : SystemИдентификатор кодека : 1Продолжительность : 1 с. 0 мс.Дата кодирования : UTC 2017-02-25 05:41:58Дата пометки : UTC 2017-02-25 05:41:58

Прочее #2Идентификатор : 1Тип : Scene descriptionФормат : System CoreИдентификатор кодека : 2Продолжительность : 1 с. 0 мс.Дата кодирования : UTC 2017-02-25 05:41:58Дата пометки : UTC 2017-02-25 05:41:58


Трекер:  [ 27-Фев-2017 11:00 ]

  

Скачать .torrent

Размер .torrent файла 13 KB


Размер: 1.32 GB
Хэш (hash) релиза: 94373dfd7848defdbb8e297a5f7a4e2992ec012a

Торренты, похожие на [VIDEO] Служебный роман скачать торрент

Форум Название Автор Размер S L Добавлен
Видео (Фильмы/Клипы) ·· [VIDEO] Служебный роман (Эльдар Рязанов) [1977, мелодрама, комедия, HDRip] [MP4, 480x] Galfimbul 14182560021.32 GB 0 0 1488116921

16:48

26-Фев-17

Еще никто не оставлял запись к записи скачать торрент [VIDEO] Служебный роман . Будь первым!

!Обратная связь