Chapter 789: Let's Treat Nature With Care | Joe Simon | Mazinger Z

Скачать через торрент [VIDEO] Большой и добрый великан The BFG бесплатно русская версия torrent активатор

Статистика раздачи
Размер:  1.3 GB   |    Зарегистрирован:  1 год 4 месяца   |    .torrent скачан:  17 раз   |   
Раздают:  1  
   
загрузка...
 
Автор Сообщение

Galfimbul

avatar Galfimbul


Большой и добрый великан / The BFG

Год выпуска: 2016
Страна: Великобритания, Канада, США
Жанр: фэнтези, приключения, семейный
Продолжительность: 01:57:39
Перевод №1: Русский Профессиональный (полное дублирование) Blu-ray
Оригинальная дорожка: Есть
Cубтитры: русские, английские
Режиссер: Стивен Спилберг / Steven Spielberg
В ролях: Марк Райлэнс, Руби Барнхилл, Пенелопа Уилтон, Джемейн Клемент, Ребекка Холл, Рейф Сполл, Билл Хейдер, Оулавюр Дарри Оулафссон, Адам Годли, Майкл Адамуэйт и другие .
Описание: В центре истории девочка по имени Софи, которая не смогла заснуть до полуночи и в окошко увидела огромного великана, который подходил к соседним домам и начинал дуть в окна спален. В полном соответствии со старинными поверьями и детскими страшилками, великан увидел Софи и унес к себе домой, в страну великанов.
Как оказалось, он в этой самой стране был единственным добрым великаном: действуя в обстановке строжайшей секретности, он коллекционировал хорошие сны, которые по ночам раздавал детям. Уши у него устроены таким образом, что он слышит, что и о чем снится ребятам, и никогда не позволяет им видеть кошмары.
Релиз группы
Качество: BDRip / рип с Blu-ray 1080p
Формат: MP4
Видео кодек: H.264
Аудио кодек: AAC
Видео: 960x402 AR:2.40 1320 kbps 23.976 fps
Аудио №1: [Russian] 2ch 48 kHz 128 kbps - Профессиональный (полное дублирование) Blu-ray
Аудио №2: [English] 2ch 48 kHz 128 kbps - Оригинал
avs [info]: 960x402p 1:1 @ 2997/125 fps (cfr)
x264 [info]: using SAR=1/1
x264 [info]: using cpu capabilities: MMX2 SSE2Fast SSSE3 SSE4.2 AVX FMA3 AVX2 LZCNT BMI2
x264 [info]: profile High, level 4.1

x264 [info]: frame I:1133 Avg QP:15.99 size: 55521
x264 [info]: frame P:42988 Avg QP:20.34 size: 14291
x264 [info]: frame B:125124 Avg QP:22.20 size: 3893
x264 [info]: consecutive B-frames: 3.3% 4.4% 15.0% 28.1% 19.0% 22.3% 3.4% 2.2% 2.3%
x264 [info]: mb I I16..4: 7.4% 64.9% 27.6%
x264 [info]: mb P I16..4: 1.0% 7.5% 2.2% P16..4: 34.5% 34.1% 10.1% 0.0% 0.0% skip:10.7%
x264 [info]: mb B I16..4: 0.2% 0.9% 0.3% B16..8: 31.1% 14.7% 2.1% direct: 3.5% skip:47.2% L0:39.6% L1:45.2% BI:15.2%
x264 [info]: 8x8 transform intra:68.1% inter:59.2%
x264 [info]: direct mvs spatial:94.9% temporal:5.1%
x264 [info]: coded y,uvDC,uvAC intra: 75.0% 80.2% 52.1% inter: 15.5% 13.9% 5.8%
x264 [info]: i16 v,h,dc,p: 26% 11% 7% 55%
x264 [info]: i8 v,h,dc,ddl,ddr,vr,hd,vl,hu: 16% 7% 7% 9% 12% 13% 12% 11% 13%
x264 [info]: i4 v,h,dc,ddl,ddr,vr,hd,vl,hu: 36% 5% 7% 6% 10% 10% 9% 8% 9%
x264 [info]: i8c dc,h,v,p: 30% 28% 23% 19%
x264 [info]: Weighted P-Frames: Y:11.7% UV:6.8%
x264 [info]: ref P L0: 55.3% 13.1% 13.1% 5.4% 3.9% 3.1% 2.4% 1.7% 1.7% 0.3% 0.0%
x264 [info]: ref B L0: 81.2% 8.0% 4.1% 2.2% 2.2% 1.2% 0.7% 0.4%
x264 [info]: ref B L1: 95.7% 4.3%
x264 [info]: kb/s:1319.59

encoded 169245 frames, 16.63 fps, 1319.59 kb/s
GeneralComplete name : D:\Torrents\The BFG.2016.BDRip.x264.960x.rip by Frost O.S.mp4Format : MPEG-4Format profile : Base MediaCodec ID : isom (isom/avc1/iso2)File size : 1.30 GiBDuration : 1 h 57 minOverall bit rate mode : VariableOverall bit rate : 1 587 kb/sMovie name : The BFG 2016 BDRip x264 960x rip by Frost O SGenre : FantasyContentType : Short FilmEncoded date : UTC 2017-02-26 16:24:10Tagged date : UTC 2017-02-26 16:30:18Writing application : MkvToMp4 version: 0.224 (x64)Cover : YesComment : rip by Frost O.S

VideoID : 1Format : AVCFormat/Info : Advanced Video CodecFormat profile : [email protected] settings, CABAC : YesFormat settings, ReFrames : 9 framesCodec ID : avc1Codec ID/Info : Advanced Video CodingDuration : 1 h 57 minBit rate : 1 320 kb/sMaximum bit rate : 5 530 kb/sWidth : 960 pixelsHeight : 402 pixelsDisplay aspect ratio : 2.40:1Frame rate mode : ConstantFrame rate : 23.976 (24000/1001) FPSOriginal frame rate : 23.976 (23976/1000) FPSColor space : YUVChroma subsampling : 4:2:0Bit depth : 8 bitsScan type : ProgressiveBits/(Pixel*Frame) : 0.143Stream size : 1.08 GiB (83%)Writing library : x264 core 148 r2705 3f5ed56Encoding settings : cabac=1 / ref=9 / deblock=1:-2:-2 / analyse=0x3:0x113 / me=umh / subme=11 / psy=1 / psy_rd=0.90:0.00 / mixed_ref=1 / me_range=32 / chroma_me=1 / trellis=2 / 8x8dct=1 / cqm=0 / deadzone=21,11 / fast_pskip=0 / chroma_qp_offset=-2 / threads=6 / lookahead_threads=1 / sliced_threads=0 / nr=0 / decimate=0 / interlaced=0 / bluray_compat=0 / constrained_intra=0 / bframes=8 / b_pyramid=2 / b_adapt=2 / b_bias=0 / direct=3 / weightb=1 / open_gop=0 / weightp=2 / keyint=250 / keyint_min=23 / scenecut=40 / intra_refresh=0 / rc=2pass / mbtree=0 / bitrate=1320 / ratetol=1.0 / qcomp=0.75 / qpmin=0 / qpmax=69 / qpstep=4 / cplxblur=20.0 / qblur=0.5 / ip_ratio=1.40 / pb_ratio=1.30 / aq=3:0.70Language : EnglishEncoded date : UTC 2017-02-26 16:24:10Tagged date : UTC 2017-02-26 16:26:46Color range : LimitedColor primaries : BT.709Transfer characteristics : BT.709Matrix coefficients : BT.709

Audio #1ID : 2Format : AACFormat/Info : Advanced Audio CodecFormat profile : LCCodec ID : 40Duration : 1 h 57 minBit rate mode : VariableBit rate : 128 kb/sMaximum bit rate : 135 kb/sChannel(s) : 2 channelsChannel positions : Front: L RSampling rate : 48.0 kHzFrame rate : 46.875 FPS (1024 spf)Compression mode : LossyStream size : 108 MiB (8%)Title : Dub_ Blu_ray / Dub_ Blu_rayLanguage : RussianDefault : YesAlternate group : 1Encoded date : UTC 2017-02-26 16:26:02Tagged date : UTC 2017-02-26 16:26:46

Audio #2ID : 3Format : AACFormat/Info : Advanced Audio CodecFormat profile : LCCodec ID : 40Duration : 1 h 57 minBit rate mode : VariableBit rate : 128 kb/sMaximum bit rate : 135 kb/sChannel(s) : 2 channelsChannel positions : Front: L RSampling rate : 48.0 kHzFrame rate : 46.875 FPS (1024 spf)Compression mode : LossyStream size : 108 MiB (8%)Title : Original / OriginalLanguage : EnglishDefault : NoAlternate group : 1Encoded date : UTC 2017-02-26 16:26:25Tagged date : UTC 2017-02-26 16:26:46

Text #1ID : 4Format : Timed TextMuxing mode : sbtlCodec ID : tx3gDuration : 1 h 38 minBit rate mode : VariableBit rate : 0 b/sStream size : 332 Bytes (0%)Title : Forced_ iTunes / Forced_ iTunesLanguage : RussianDefault : YesForced : NoAlternate group : 2Encoded date : UTC 2017-02-26 16:26:45Tagged date : UTC 2017-02-26 16:26:46

Text #2ID : 5Format : Timed TextMuxing mode : sbtlCodec ID : tx3gDuration : 1 h 49 minBit rate mode : VariableBit rate : 54 b/sStream size : 43.1 KiB (0%)Title : iTunes / iTunesLanguage : RussianDefault : NoForced : NoAlternate group : 2Encoded date : UTC 2017-02-26 16:26:46Tagged date : UTC 2017-02-26 16:26:46

Text #3ID : 6Format : Timed TextMuxing mode : sbtlCodec ID : tx3gDuration : 1 h 49 minBit rate mode : VariableBit rate : 35 b/sStream size : 28.1 KiB (0%)Title : iTunes / iTunesLanguage : EnglishDefault : NoForced : NoAlternate group : 2Encoded date : UTC 2017-02-26 16:26:46Tagged date : UTC 2017-02-26 16:26:46


Трекер:  [ 26-Фев-2017 19:30 ]

  

Скачать .torrent

Размер .torrent файла 13 KB


Размер: 1.3 GB
Хэш (hash) релиза: f8d870a701dc65e621f35b39b5759eb72a2d5ed6

Еще никто не оставлял запись к записи скачать торрент [VIDEO] Большой и добрый великан The BFG . Будь первым!

!Обратная связь