All Night HDTV 720p AC3 5.1 | bushido wahrheit | Español (ES)

Скачать через торрент [VIDEO] Большой и добрый великан The BFG бесплатно русская версия torrent активатор

Статистика раздачи
Размер:  459 MB   |    Зарегистрирован:  1 год 4 месяца   |    .torrent скачан:  9 раз   |   
Раздают:  1  
   
загрузка...
 
Автор Сообщение

Galfimbul

avatar Galfimbul


Большой и добрый великан / The BFG

Год выпуска: 2016
Страна: Великобритания, Канада, США
Жанр: фэнтези, приключения, семейный
Продолжительность: 01:57:39
Перевод: Русский Профессиональный (полное дублирование) Blu-ray
Cубтитры: нет
Режиссер: Стивен Спилберг / Steven Spielberg
В ролях: Марк Райлэнс, Руби Барнхилл, Пенелопа Уилтон, Джемейн Клемент, Ребекка Холл, Рейф Сполл, Билл Хейдер, Оулавюр Дарри Оулафссон, Адам Годли, Майкл Адамуэйт и другие .
Описание: В центре истории девочка по имени Софи, которая не смогла заснуть до полуночи и в окошко увидела огромного великана, который подходил к соседним домам и начинал дуть в окна спален. В полном соответствии со старинными поверьями и детскими страшилками, великан увидел Софи и унес к себе домой, в страну великанов.
Как оказалось, он в этой самой стране был единственным добрым великаном: действуя в обстановке строжайшей секретности, он коллекционировал хорошие сны, которые по ночам раздавал детям. Уши у него устроены таким образом, что он слышит, что и о чем снится ребятам, и никогда не позволяет им видеть кошмары.
Релиз группы
Качество: HDRip / рип с BDRip 720p (HDClub)
Формат: MP4
Видео кодек: XviD
Аудио кодек: AAC
Видео: 480x200 AR:2.40 409 kbps 23.976 fps
Аудио: [Russian] 2ch 48 kHz 128 kbps - Профессиональный (полное дублирование) Blu-ray
GeneralComplete name : D:\Torrents\The BFG.2016.HDRip.XviD.480x.rip by Frost O.S.mp4Format : MPEG-4Format profile : Base MediaCodec ID : isom (isom/iso2)File size : 459 MiBDuration : 1 h 57 minOverall bit rate mode : VariableOverall bit rate : 545 kb/sMovie name : The BFG 2016 HDRip XviD 480x rip by Frost O SGenre : FantasyContentType : Short FilmEncoded date : UTC 2017-02-26 16:39:57Tagged date : UTC 2017-02-26 16:41:58Writing application : MkvToMp4 version: 0.224 (x64)Cover : YesComment : rip by Frost O.S

VideoID : 1Format : MPEG-4 VisualFormat profile : Advanced [email protected] settings, BVOP : YesFormat settings, QPel : NoFormat settings, GMC : No warppointsFormat settings, Matrix : CustomCodec ID : 20Duration : 1 h 57 minBit rate mode : VariableBit rate : 409 kb/sMaximum bit rate : 2 782 kb/sWidth : 480 pixelsHeight : 200 pixelsDisplay aspect ratio : 2.40:1Frame rate mode : ConstantFrame rate : 23.976 (24000/1001) FPSOriginal frame rate : 23.976 (23976/1000) FPSColor space : YUVChroma subsampling : 4:2:0Bit depth : 8 bitsScan type : ProgressiveCompression mode : LossyBits/(Pixel*Frame) : 0.178Stream size : 345 MiB (75%)Title : avi_GPAC0.5.2_DEV_rev248_g39d5978_masterWriting library : XviD 1.2.1 (UTC 2008-12-04)Language : EnglishTagged date : UTC 2017-02-26 16:40:10

AudioID : 2Format : AACFormat/Info : Advanced Audio CodecFormat profile : LCCodec ID : 40Duration : 1 h 57 minBit rate mode : VariableBit rate : 128 kb/sMaximum bit rate : 135 kb/sChannel(s) : 2 channelsChannel positions : Front: L RSampling rate : 48.0 kHzFrame rate : 46.875 FPS (1024 spf)Compression mode : LossyStream size : 108 MiB (23%)Title : Dub_ Blu_ray / Dub_ Blu_rayLanguage : RussianDefault : YesAlternate group : 1Encoded date : UTC 2017-02-26 16:40:05Tagged date : UTC 2017-02-26 16:40:10


Трекер:  [ 26-Фев-2017 19:30 ]

  

Скачать .torrent

Размер .torrent файла 18 KB


Размер: 459 MB
Хэш (hash) релиза: a77bcdb18df1e6ab9f8c7cb6ba05acc3518854ea

Еще никто не оставлял запись к записи скачать торрент [VIDEO] Большой и добрый великан The BFG . Будь первым!

!Обратная связь