Murder Rap Inside The Biggie And Tupac Murders VO | Photolemur 2 3 0 1775 + Crack [CracksNow] | Yuki No Concerto

Скачать через торрент [VIDEO] Пастырь Priest бесплатно русская версия torrent активатор

Статистика раздачи
Размер:  1.31 GB   |    Зарегистрирован:  1 год 4 месяца   |    .torrent скачан:  18 раз   |   
Раздают:  1  
   
загрузка...
 
Автор Сообщение

Galfimbul

avatar Galfimbul


Пастырь / Priest

Год выпуска: 2011
Страна: США
Жанр: ужасы, фантастика, боевик, триллер
Продолжительность: 01:27:27
Перевод №1: Русский Профессиональный (полное дублирование)
Перевод №2: Украинский Профессиональный (полное дублирование)
Оригинальная дорожка: Есть
Cубтитры: русские, английские
Режиссер: Скотт Чарльз Стюарт / Scott Charles Stewart
В ролях: Пол Беттани / Paul Bettany, Карл Урбан / Karl Urban, Кэм Жиганде / Cam Gigandet, Мэгги Кью / Maggie Q, Лили Коллинз / Lily Collins, Брэд Дуриф / Brad Dourif, Стивен Мойер / Stephen Moyer, Кристофер Пламмер / Christopher Plummer, Алан Дэйл / Alan Dale, Медкен Эмик / Madchen Amick и другие .
Описание: Далекое будущее. Миром правят религия и церковь. Священник, нарушая все церковные запреты, пытается выследить банду вампиров, похитивших его племянницу. В поисках ему помогают шериф и монахиня.
Релиз группы
Качество: BDRip / рип с Blu-ray 1080p
Формат: MP4
Видео кодек: H.264
Аудио кодек: AAC
Видео: 960x400 AR:2.40 1740 kbps 23.976 fps
Аудио №1: [Russian] 2ch 48 kHz 128 kbps - Профессиональный (полное дублирование)
Аудио №2: [Ukrainian] 2ch 48 kHz 128 kbps - Профессиональный (полное дублирование)
Аудио №3: [English] 2ch 48 kHz 128 kbps - Оригинал
avs [info]: 960x400p 1:1 @ 2997/125 fps (cfr)
x264 [info]: using SAR=1/1
x264 [info]: using cpu capabilities: MMX2 SSE2Fast SSSE3 SSE4.2 AVX FMA3 AVX2 LZCNT BMI2
x264 [info]: profile High, level 4.1

x264 [info]: frame I:1100 Avg QP:14.16 size: 51042
x264 [info]: frame P:30343 Avg QP:17.34 size: 18346
x264 [info]: frame B:94365 Avg QP:19.69 size: 5600
x264 [info]: consecutive B-frames: 3.9% 5.4% 9.8% 21.3% 17.4% 25.2% 6.6% 5.2% 2.4% 1.5% 1.3%
x264 [info]: mb I I16..4: 8.3% 67.7% 24.0%
x264 [info]: mb P I16..4: 1.0% 8.7% 1.4% P16..4: 33.6% 39.2% 11.7% 0.0% 0.0% skip: 4.3%
x264 [info]: mb B I16..4: 0.0% 0.8% 0.1% B16..8: 36.1% 17.8% 2.8% direct: 4.2% skip:38.1% L0:42.9% L1:44.9% BI:12.2%
x264 [info]: 8x8 transform intra:76.7% inter:58.0%
x264 [info]: direct mvs spatial:96.3% temporal:3.7%
x264 [info]: coded y,uvDC,uvAC intra: 84.1% 73.5% 52.4% inter: 22.2% 13.9% 5.4%
x264 [info]: i16 v,h,dc,p: 25% 16% 10% 49%
x264 [info]: i8 v,h,dc,ddl,ddr,vr,hd,vl,hu: 8% 8% 7% 10% 14% 13% 14% 12% 14%
x264 [info]: i4 v,h,dc,ddl,ddr,vr,hd,vl,hu: 8% 7% 6% 11% 16% 13% 14% 11% 14%
x264 [info]: i8c dc,h,v,p: 37% 31% 17% 16%
x264 [info]: Weighted P-Frames: Y:15.6% UV:9.9%
x264 [info]: ref P L0: 48.7% 8.8% 17.1% 7.5% 5.4% 4.3% 3.5% 2.2% 2.0% 0.4% 0.0%
x264 [info]: ref B L0: 75.5% 11.3% 5.8% 2.7% 2.0% 1.5% 0.9% 0.3%
x264 [info]: ref B L1: 94.2% 5.8%
x264 [info]: kb/s:1739.99

encoded 125808 frames, 15.19 fps, 1739.99 kb/s
GeneralComplete name : D:\Torrents\Priest.2011.BDRip.x264.960x.rip by Frost O.S.mp4Format : MPEG-4Format profile : Base MediaCodec ID : isom (isom/avc1/iso2)File size : 1.31 GiBDuration : 1 h 27 minOverall bit rate mode : VariableOverall bit rate : 2 139 kb/sMovie name : Priest 2011 BDRip x264 960x rip by Frost O SGenre : ActionContentType : Short FilmEncoded date : UTC 2017-02-26 08:59:49Tagged date : UTC 2017-02-26 09:01:48Writing application : MkvToMp4 version: 0.224 (x64)Cover : YesComment : rip by Frost O.S

VideoID : 1Format : AVCFormat/Info : Advanced Video CodecFormat profile : [email protected] settings, CABAC : YesFormat settings, ReFrames : 9 framesCodec ID : avc1Codec ID/Info : Advanced Video CodingDuration : 1 h 27 minBit rate : 1 740 kb/sMaximum bit rate : 8 310 kb/sWidth : 960 pixelsHeight : 400 pixelsDisplay aspect ratio : 2.40:1Frame rate mode : ConstantFrame rate : 23.976 (24000/1001) FPSOriginal frame rate : 23.976 (23976/1000) FPSColor space : YUVChroma subsampling : 4:2:0Bit depth : 8 bitsScan type : ProgressiveBits/(Pixel*Frame) : 0.189Stream size : 1.06 GiB (81%)Writing library : x264 core 148 r2705 3f5ed56Encoding settings : cabac=1 / ref=9 / deblock=1:-3:-3 / analyse=0x3:0x113 / me=umh / subme=11 / psy=1 / psy_rd=0.95:0.00 / mixed_ref=1 / me_range=32 / chroma_me=1 / trellis=2 / 8x8dct=1 / cqm=0 / deadzone=21,11 / fast_pskip=0 / chroma_qp_offset=-2 / threads=6 / lookahead_threads=1 / sliced_threads=0 / nr=0 / decimate=0 / interlaced=0 / bluray_compat=0 / constrained_intra=0 / bframes=10 / b_pyramid=2 / b_adapt=2 / b_bias=0 / direct=3 / weightb=1 / open_gop=0 / weightp=2 / keyint=250 / keyint_min=23 / scenecut=40 / intra_refresh=0 / rc=2pass / mbtree=0 / bitrate=1740 / ratetol=1.0 / qcomp=0.85 / qpmin=0 / qpmax=69 / qpstep=4 / cplxblur=20.0 / qblur=0.5 / ip_ratio=1.40 / pb_ratio=1.30 / aq=3:0.40Language : EnglishEncoded date : UTC 2017-02-26 08:59:49Tagged date : UTC 2017-02-26 09:00:36Color range : LimitedColor primaries : BT.709Transfer characteristics : BT.709Matrix coefficients : BT.709

Audio #1ID : 2Format : AACFormat/Info : Advanced Audio CodecFormat profile : LCCodec ID : 40Duration : 1 h 27 minBit rate mode : VariableBit rate : 128 kb/sMaximum bit rate : 135 kb/sChannel(s) : 2 channelsChannel positions : Front: L RSampling rate : 48.0 kHzFrame rate : 46.875 FPS (1024 spf)Compression mode : LossyStream size : 80.1 MiB (6%)Title : Dub / DubLanguage : RussianDefault : YesAlternate group : 1Encoded date : UTC 2017-02-26 09:00:14Tagged date : UTC 2017-02-26 09:00:36

Audio #2ID : 3Format : AACFormat/Info : Advanced Audio CodecFormat profile : LCCodec ID : 40Duration : 1 h 27 minBit rate mode : VariableBit rate : 128 kb/sMaximum bit rate : 134 kb/sChannel(s) : 2 channelsChannel positions : Front: L RSampling rate : 48.0 kHzFrame rate : 46.875 FPS (1024 spf)Compression mode : LossyStream size : 80.1 MiB (6%)Title : Dub / DubLanguage : UkrainianDefault : NoAlternate group : 1Encoded date : UTC 2017-02-26 09:00:23Tagged date : UTC 2017-02-26 09:00:36

Audio #3ID : 4Format : AACFormat/Info : Advanced Audio CodecFormat profile : LCCodec ID : 40Duration : 1 h 27 minBit rate mode : VariableBit rate : 128 kb/sMaximum bit rate : 135 kb/sChannel(s) : 2 channelsChannel positions : Front: L RSampling rate : 48.0 kHzFrame rate : 46.875 FPS (1024 spf)Compression mode : LossyStream size : 80.1 MiB (6%)Title : Original / OriginalLanguage : EnglishDefault : NoAlternate group : 1Encoded date : UTC 2017-02-26 09:00:29Tagged date : UTC 2017-02-26 09:00:36

Text #1ID : 5Format : Timed TextMuxing mode : sbtlCodec ID : tx3gDuration : 1 h 19 minBit rate mode : VariableBit rate : 58 b/sStream size : 34.2 KiB (0%)Language : RussianDefault : YesForced : NoAlternate group : 2Encoded date : UTC 2017-02-26 09:00:36Tagged date : UTC 2017-02-26 09:00:36

Text #2ID : 6Format : Timed TextMuxing mode : sbtlCodec ID : tx3gDuration : 1 h 19 minBit rate mode : VariableBit rate : 40 b/sStream size : 23.1 KiB (0%)Language : EnglishDefault : NoForced : NoAlternate group : 2Encoded date : UTC 2017-02-26 09:00:36Tagged date : UTC 2017-02-26 09:00:36


Трекер:  [ 26-Фев-2017 11:30 ]

  

Скачать .torrent

Размер .torrent файла 13 KB


Размер: 1.31 GB
Хэш (hash) релиза: 3ceccd6d7e186ba29c8eeba54f118ab3d5bc2057

Еще никто не оставлял запись к записи скачать торрент [VIDEO] Пастырь Priest . Будь первым!

!Обратная связь