วันพีชตอนที่287 | Intlo Deyyam Nakem Bhayam 2016 Dual Audio UNCUT Hindi 400MB HDRip Download | Secret Visitor

Скачать через торрент [VIDEO] Воины света Daybreakers бесплатно русская версия torrent активатор

Статистика раздачи
Размер:  1.64 GB   |    Зарегистрирован:  1 год 4 месяца   |    .torrent скачан:  14 раз   |   
Раздают:  1  
   
загрузка...
 
Автор Сообщение

Galfimbul

avatar Galfimbul


Воины света / Daybreakers

Год выпуска: 2009
Страна: США, Австралия
Жанр: ужасы, фантастика, боевик
Продолжительность: 01:37:49
Перевод №1: Русский Профессиональный (полное дублирование)
Перевод №2: Русский Профессиональный (многоголосый, закадровый) РенТВ
Перевод №3: Украинский Профессиональный (двухголосый, закадровый) Новый канал
Перевод №4: Украинский Профессиональный (двухголосый, закадровый) НТН
Оригинальная дорожка: Есть
Cубтитры: русские, английские
Режиссеры: Майкл Спириг / Michael Spierig, Питер Спириг / Peter Spierig
В ролях: Этан Хоук, Уиллем Дефо, Сэм Нилл, Джей Лагайя, Дэмиен Гарви, Аллан Тодд, Питер Велман, Мишель Эткинсон, Джек Брэдфорд, Крис Браун и другие .
Описание: 2019 год. Глобальная эпидемия превратила большинство людей в вампиров, поставив человечество на грань вымирания. Безмятежное будущее не светит, впрочем, и кровососам: в условиях дефицита крови они вынуждены холить и лелеять каждую оставшуюся в живых человеческую особь — либо синтезировать заменитель крови. Противостоять концу света пытается группа ученых, ищущая средства для борьбы с вампирами.
Релиз группы
Качество: BDRip / рип с Blu-ray 1080p
Формат: MP4
Видео кодек: H.264
Аудио кодек: AAC
Видео: 960x408 AR:2.35 1740 kbps 23.976 fps
Аудио №1: [Russian] 2ch 48 kHz 128 kbps - Профессиональный (полное дублирование)
Аудио №2: [Russian] 2ch 48 kHz 128 kbps - Профессиональный (многоголосый, закадровый) РенТВ
Аудио №3: [Ukrainian] 2ch 48 kHz 128 kbps - Профессиональный (двухголосый, закадровый) Новый канал
Аудио №4: [Ukrainian] 2ch 48 kHz 128 kbps - Профессиональный (двухголосый, закадровый) НТН
Аудио №5: [English] 2ch 48 kHz 128 kbps - Оригинал
avs [info]: 960x408p 1:1 @ 2997/125 fps (cfr)
x264 [info]: using SAR=1/1
x264 [info]: using cpu capabilities: MMX2 SSE2Fast SSSE3 SSE4.2 AVX FMA3 AVX2 LZCNT BMI2
x264 [info]: profile High, level 4.1

x264 [info]: frame I:1677 Avg QP:15.80 size: 63970
x264 [info]: frame P:32068 Avg QP:18.92 size: 17843
x264 [info]: frame B:106963 Avg QP:20.51 size: 5572
x264 [info]: consecutive B-frames: 3.1% 3.4% 9.5% 19.9% 19.3% 36.8% 4.4% 1.9% 1.7%
x264 [info]: mb I I16..4: 6.3% 75.7% 18.0%
x264 [info]: mb P I16..4: 0.8% 9.1% 1.3% P16..4: 29.9% 36.1% 12.2% 0.0% 0.0% skip:10.5%
x264 [info]: mb B I16..4: 0.1% 0.9% 0.1% B16..8: 33.7% 16.7% 2.9% direct: 4.4% skip:41.2% L0:44.2% L1:45.0% BI:10.8%
x264 [info]: 8x8 transform intra:80.0% inter:58.5%
x264 [info]: direct mvs spatial:95.3% temporal:4.7%
x264 [info]: coded y,uvDC,uvAC intra: 88.1% 78.7% 52.8% inter: 23.2% 12.7% 4.0%
x264 [info]: i16 v,h,dc,p: 32% 16% 9% 43%
x264 [info]: i8 v,h,dc,ddl,ddr,vr,hd,vl,hu: 11% 8% 9% 10% 13% 12% 13% 11% 12%
x264 [info]: i4 v,h,dc,ddl,ddr,vr,hd,vl,hu: 15% 10% 6% 8% 14% 13% 13% 10% 12%
x264 [info]: i8c dc,h,v,p: 34% 28% 20% 17%
x264 [info]: Weighted P-Frames: Y:9.3% UV:6.3%
x264 [info]: ref P L0: 46.9% 9.2% 19.1% 6.9% 5.9% 4.0% 3.7% 1.9% 2.0% 0.2% 0.0%
x264 [info]: ref B L0: 72.8% 12.0% 6.3% 3.2% 2.3% 1.9% 1.1% 0.4%
x264 [info]: ref B L1: 94.3% 5.7%
x264 [info]: kb/s:1738.66

encoded 140708 frames, 14.74 fps, 1738.66 kb/s
GeneralComplete name : D:\Torrents\Daybreakers.2009.BDRip.x264.960x.rip by Frost O.S.mp4Format : MPEG-4Format profile : Base MediaCodec ID : isom (isom/avc1/iso2)File size : 1.64 GiBDuration : 1 h 37 minOverall bit rate mode : VariableOverall bit rate : 2 401 kb/sMovie name : Daybreakers 2009 BDRip x264 960x rip by Frost O SGenre : HorrorContentType : Short FilmEncoded date : UTC 2017-02-26 08:50:55Tagged date : UTC 2017-02-26 08:54:22Writing application : MkvToMp4 version: 0.224 (x64)Cover : YesComment : rip by Frost O.S

VideoID : 1Format : AVCFormat/Info : Advanced Video CodecFormat profile : [email protected] settings, CABAC : YesFormat settings, ReFrames : 9 framesCodec ID : avc1Codec ID/Info : Advanced Video CodingDuration : 1 h 37 minBit rate : 1 740 kb/sMaximum bit rate : 8 976 kb/sWidth : 960 pixelsHeight : 408 pixelsDisplay aspect ratio : 2.35:1Frame rate mode : ConstantFrame rate : 23.976 (24000/1001) FPSOriginal frame rate : 23.976 (23976/1000) FPSColor space : YUVChroma subsampling : 4:2:0Bit depth : 8 bitsScan type : ProgressiveBits/(Pixel*Frame) : 0.185Stream size : 1.19 GiB (72%)Writing library : x264 core 148 r2705 3f5ed56Encoding settings : cabac=1 / ref=9 / deblock=1:-2:-2 / analyse=0x3:0x113 / me=umh / subme=11 / psy=1 / psy_rd=0.95:0.00 / mixed_ref=1 / me_range=32 / chroma_me=1 / trellis=2 / 8x8dct=1 / cqm=0 / deadzone=21,11 / fast_pskip=0 / chroma_qp_offset=-2 / threads=6 / lookahead_threads=1 / sliced_threads=0 / nr=0 / decimate=0 / interlaced=0 / bluray_compat=0 / constrained_intra=0 / bframes=8 / b_pyramid=2 / b_adapt=2 / b_bias=0 / direct=3 / weightb=1 / open_gop=0 / weightp=2 / keyint=250 / keyint_min=23 / scenecut=40 / intra_refresh=0 / rc=2pass / mbtree=0 / bitrate=1740 / ratetol=1.0 / qcomp=0.75 / qpmin=0 / qpmax=69 / qpstep=4 / cplxblur=20.0 / qblur=0.5 / ip_ratio=1.40 / pb_ratio=1.30 / aq=3:0.70Language : EnglishEncoded date : UTC 2017-02-26 08:50:55Tagged date : UTC 2017-02-26 08:52:05Color range : LimitedColor primaries : BT.709Transfer characteristics : BT.709Matrix coefficients : BT.709

Audio #1ID : 2Format : AACFormat/Info : Advanced Audio CodecFormat profile : LCCodec ID : 40Duration : 1 h 37 minBit rate mode : VariableBit rate : 128 kb/sMaximum bit rate : 135 kb/sChannel(s) : 2 channelsChannel positions : Front: L RSampling rate : 48.0 kHzFrame rate : 46.875 FPS (1024 spf)Compression mode : LossyStream size : 89.5 MiB (5%)Title : Dub / DubLanguage : RussianDefault : YesAlternate group : 1Encoded date : UTC 2017-02-26 08:51:31Tagged date : UTC 2017-02-26 08:52:05

Audio #2ID : 3Format : AACFormat/Info : Advanced Audio CodecFormat profile : LCCodec ID : 40Duration : 1 h 37 minBit rate mode : VariableBit rate : 128 kb/sMaximum bit rate : 135 kb/sChannel(s) : 2 channelsChannel positions : Front: L RSampling rate : 48.0 kHzFrame rate : 46.875 FPS (1024 spf)Compression mode : LossyStream size : 89.6 MiB (5%)Title : MVO_ RenTV / MVO_ RenTVLanguage : RussianDefault : NoAlternate group : 1Encoded date : UTC 2017-02-26 08:51:40Tagged date : UTC 2017-02-26 08:52:05

Audio #3ID : 4Format : AACFormat/Info : Advanced Audio CodecFormat profile : LCCodec ID : 40Duration : 1 h 37 minBit rate mode : VariableBit rate : 128 kb/sMaximum bit rate : 135 kb/sChannel(s) : 2 channelsChannel positions : Front: L RSampling rate : 48.0 kHzFrame rate : 46.875 FPS (1024 spf)Compression mode : LossyStream size : 89.5 MiB (5%)Title : DVO_ Novui Kanal / DVO_ Novui KanalLanguage : UkrainianDefault : NoAlternate group : 1Encoded date : UTC 2017-02-26 08:51:46Tagged date : UTC 2017-02-26 08:52:05

Audio #4ID : 5Format : AACFormat/Info : Advanced Audio CodecFormat profile : LCCodec ID : 40Duration : 1 h 37 minBit rate mode : VariableBit rate : 128 kb/sMaximum bit rate : 135 kb/sChannel(s) : 2 channelsChannel positions : Front: L RSampling rate : 48.0 kHzFrame rate : 46.875 FPS (1024 spf)Compression mode : LossyStream size : 89.5 MiB (5%)Title : DVO_ HTH / DVO_ HTHLanguage : UkrainianDefault : NoAlternate group : 1Encoded date : UTC 2017-02-26 08:51:51Tagged date : UTC 2017-02-26 08:52:05

Audio #5ID : 6Format : AACFormat/Info : Advanced Audio CodecFormat profile : LCCodec ID : 40Duration : 1 h 37 minBit rate mode : VariableBit rate : 128 kb/sMaximum bit rate : 135 kb/sChannel(s) : 2 channelsChannel positions : Front: L RSampling rate : 48.0 kHzFrame rate : 46.875 FPS (1024 spf)Compression mode : LossyStream size : 89.5 MiB (5%)Title : Original / OriginalLanguage : EnglishDefault : NoAlternate group : 1Encoded date : UTC 2017-02-26 08:51:57Tagged date : UTC 2017-02-26 08:52:05

Text #1ID : 7Format : Timed TextMuxing mode : sbtlCodec ID : tx3gDuration : 1 h 31 minBit rate mode : VariableBit rate : 56 b/sStream size : 37.6 KiB (0%)Language : RussianDefault : YesForced : NoAlternate group : 2Encoded date : UTC 2017-02-26 08:52:05Tagged date : UTC 2017-02-26 08:52:05

Text #2ID : 8Format : Timed TextMuxing mode : sbtlCodec ID : tx3gDuration : 1 h 31 minBit rate mode : VariableBit rate : 39 b/sStream size : 26.3 KiB (0%)Language : EnglishDefault : NoForced : NoAlternate group : 2Encoded date : UTC 2017-02-26 08:52:05Tagged date : UTC 2017-02-26 08:52:05


Трекер:  [ 26-Фев-2017 11:30 ]

  

Скачать .torrent

Размер .torrent файла 17 KB


Размер: 1.64 GB
Хэш (hash) релиза: 0bb33d15e4be87bfaa0d9ae985fdef7d4ae2868f

Еще никто не оставлял запись к записи скачать торрент [VIDEO] Воины света Daybreakers . Будь первым!

!Обратная связь