Ansel Elgort | Télécharger | Episode 06 (Sub)

Скачать через торрент [VIDEO] Президент Линкольн: Охотник на вампиров Abraham Lincoln: Vampire Hunter бесплатно русская версия torrent активатор

Статистика раздачи
Размер:  1.57 GB   |    Зарегистрирован:  1 год 4 месяца   |    .torrent скачан:  13 раз   |   
Раздают:  1  
   
загрузка...
 
Автор Сообщение

Galfimbul

avatar Galfimbul


Президент Линкольн: Охотник на вампиров / Abraham Lincoln: Vampire Hunter

Год выпуска: 2012
Страна: США
Жанр: ужасы, фэнтези, боевик, триллер
Продолжительность: 01:45:01
Перевод №1: Русский Профессиональный (полное дублирование) BD EUR
Перевод №2: Украинский Профессиональный (полное дублирование) BD EUR
Оригинальная дорожка: Есть
Cубтитры: русские, украинские, английские
Режиссер: Тимур Бекмамбетов / Timur Bekmambetov
В ролях: Бенджамин Уокер, Доминик Купер, Энтони Маки, Мэри Элизабет Уинстэд, Руфус Сьюэлл, Мартон Чокаш, Джимми Симпсон, Джозеф Моул, Робин МакЛиви, Эрин Уоссон и другие .
Описание: Сюжет фильма раскрывает тайную жизнь Величайшего Президента Америки Авраама Линкольна - любящего мужа и отца днем и беспощадного убийцу вампиров ночью. Армия кровопийц, которым он бросил вызов, растет с каждым днем. Сможет ли президент великой страны противостоять полчищам вампиров и спасти свою семью и народ от неминуемой гибели?..
Релиз группы
Качество: BDRip / рип с Blu-ray 1080p
Формат: MP4
Видео кодек: H.264
Аудио кодек: AAC
Видео: 960x400 AR:2.40 1740 kbps 23.976 fps
Аудио №1: [Russian] 2ch 48 kHz 128 kbps - Профессиональный (полное дублирование) BD EUR
Аудио №2: [Ukrainian] 2ch 48 kHz 128 kbps - Профессиональный (полное дублирование) BD EUR
Аудио №3: [English] 2ch 48 kHz 128 kbps - Оригинал
avs [info]: 960x400p 1:1 @ 2997/125 fps (cfr)
x264 [info]: using SAR=1/1
x264 [info]: using cpu capabilities: MMX2 SSE2Fast SSSE3 SSE4.2 AVX FMA3 AVX2 LZCNT BMI2
x264 [info]: profile High, level 4.1

x264 [info]: frame I:1149 Avg QP:14.78 size: 59856
x264 [info]: frame P:38706 Avg QP:18.16 size: 17905
x264 [info]: frame B:111207 Avg QP:20.45 size: 5468
x264 [info]: consecutive B-frames: 4.3% 5.1% 13.2% 23.6% 18.3% 27.2% 4.6% 1.5% 1.5% 0.8%
x264 [info]: mb I I16..4: 4.9% 72.7% 22.4%
x264 [info]: mb P I16..4: 0.9% 8.4% 1.4% P16..4: 33.6% 38.4% 11.4% 0.0% 0.0% skip: 5.9%
x264 [info]: mb B I16..4: 0.0% 0.7% 0.1% B16..8: 36.3% 19.7% 2.9% direct: 4.3% skip:35.9% L0:42.1% L1:44.7% BI:13.2%
x264 [info]: 8x8 transform intra:77.7% inter:59.1%
x264 [info]: direct mvs spatial:97.0% temporal:3.0%
x264 [info]: coded y,uvDC,uvAC intra: 90.0% 78.6% 49.3% inter: 22.6% 16.3% 5.6%
x264 [info]: i16 v,h,dc,p: 11% 9% 6% 74%
x264 [info]: i8 v,h,dc,ddl,ddr,vr,hd,vl,hu: 8% 7% 5% 11% 16% 14% 14% 13% 13%
x264 [info]: i4 v,h,dc,ddl,ddr,vr,hd,vl,hu: 10% 6% 4% 10% 17% 15% 14% 12% 13%
x264 [info]: i8c dc,h,v,p: 35% 26% 20% 19%
x264 [info]: Weighted P-Frames: Y:20.1% UV:13.9%
x264 [info]: ref P L0: 50.5% 10.0% 17.1% 6.6% 4.8% 3.6% 3.1% 1.9% 1.9% 0.6% 0.1%
x264 [info]: ref B L0: 78.8% 10.5% 4.8% 2.2% 1.5% 1.2% 0.8% 0.3%
x264 [info]: ref B L1: 95.0% 5.0%
x264 [info]: kb/s:1739.35

encoded 151062 frames, 14.60 fps, 1739.35 kb/s
GeneralComplete name : D:\Torrents\Abraham Lincoln Vampire Hunter.2012.BDRip.x264.960x.rip by Frost O.S.mp4Format : MPEG-4Format profile : Base MediaCodec ID : isom (isom/avc1/iso2)File size : 1.57 GiBDuration : 1 h 45 minOverall bit rate mode : VariableOverall bit rate : 2 139 kb/sMovie name : Abraham Lincoln Vampire Hunter 2012 BDRip x264 960x rip by Frost O SGenre : ActionContentType : Short FilmEncoded date : UTC 2017-02-26 08:38:33Tagged date : UTC 2017-02-26 08:41:37Writing application : MkvToMp4 version: 0.224 (x64)Cover : YesComment : rip by Frost O.S

VideoID : 1Format : AVCFormat/Info : Advanced Video CodecFormat profile : [email protected] settings, CABAC : YesFormat settings, ReFrames : 9 framesCodec ID : avc1Codec ID/Info : Advanced Video CodingDuration : 1 h 45 minBit rate : 1 740 kb/sMaximum bit rate : 12.5 Mb/sWidth : 960 pixelsHeight : 400 pixelsDisplay aspect ratio : 2.40:1Frame rate mode : ConstantFrame rate : 23.976 (24000/1001) FPSOriginal frame rate : 23.976 (23976/1000) FPSColor space : YUVChroma subsampling : 4:2:0Bit depth : 8 bitsScan type : ProgressiveBits/(Pixel*Frame) : 0.189Stream size : 1.28 GiB (81%)Writing library : x264 core 148 r2705 3f5ed56Encoding settings : cabac=1 / ref=9 / deblock=1:-2:-2 / analyse=0x3:0x113 / me=umh / subme=11 / psy=1 / psy_rd=0.95:0.00 / mixed_ref=1 / me_range=32 / chroma_me=1 / trellis=2 / 8x8dct=1 / cqm=0 / deadzone=21,11 / fast_pskip=0 / chroma_qp_offset=-2 / threads=6 / lookahead_threads=1 / sliced_threads=0 / nr=0 / decimate=0 / interlaced=0 / bluray_compat=0 / constrained_intra=0 / bframes=9 / b_pyramid=2 / b_adapt=2 / b_bias=0 / direct=3 / weightb=1 / open_gop=0 / weightp=2 / keyint=250 / keyint_min=23 / scenecut=40 / intra_refresh=0 / rc=2pass / mbtree=0 / bitrate=1740 / ratetol=1.0 / qcomp=0.75 / qpmin=0 / qpmax=69 / qpstep=4 / cplxblur=20.0 / qblur=0.5 / ip_ratio=1.40 / pb_ratio=1.30 / aq=3:0.50Language : EnglishEncoded date : UTC 2017-02-26 08:38:33Tagged date : UTC 2017-02-26 08:39:34Color range : LimitedColor primaries : BT.709Transfer characteristics : BT.709Matrix coefficients : BT.709

Audio #1ID : 2Format : AACFormat/Info : Advanced Audio CodecFormat profile : LCCodec ID : 40Duration : 1 h 45 minBit rate mode : VariableBit rate : 128 kb/sMaximum bit rate : 135 kb/sChannel(s) : 2 channelsChannel positions : Front: L RSampling rate : 48.0 kHzFrame rate : 46.875 FPS (1024 spf)Compression mode : LossyStream size : 96.1 MiB (6%)Title : Dub_ BD EUR / Dub_ BD EURLanguage : RussianDefault : YesAlternate group : 1Encoded date : UTC 2017-02-26 08:39:14Tagged date : UTC 2017-02-26 08:39:34

Audio #2ID : 3Format : AACFormat/Info : Advanced Audio CodecFormat profile : LCCodec ID : 40Duration : 1 h 45 minBit rate mode : VariableBit rate : 128 kb/sMaximum bit rate : 135 kb/sChannel(s) : 2 channelsChannel positions : Front: L RSampling rate : 48.0 kHzFrame rate : 46.875 FPS (1024 spf)Compression mode : LossyStream size : 96.1 MiB (6%)Title : Dub_ BD EUR / Dub_ BD EURLanguage : UkrainianDefault : NoAlternate group : 1Encoded date : UTC 2017-02-26 08:39:21Tagged date : UTC 2017-02-26 08:39:34

Audio #3ID : 4Format : AACFormat/Info : Advanced Audio CodecFormat profile : LCCodec ID : 40Duration : 1 h 45 minBit rate mode : VariableBit rate : 128 kb/sMaximum bit rate : 135 kb/sChannel(s) : 2 channelsChannel positions : Front: L RSampling rate : 48.0 kHzFrame rate : 46.875 FPS (1024 spf)Compression mode : LossyStream size : 96.1 MiB (6%)Title : Original / OriginalLanguage : EnglishDefault : NoAlternate group : 1Encoded date : UTC 2017-02-26 08:39:27Tagged date : UTC 2017-02-26 08:39:34

Text #1ID : 5Format : Timed TextMuxing mode : sbtlCodec ID : tx3gDuration : 1 h 11 minBit rate mode : VariableBit rate : 1 b/sStream size : 445 Bytes (0%)Title : Forced / ForcedLanguage : RussianDefault : YesForced : NoAlternate group : 2Encoded date : UTC 2017-02-26 08:39:34Tagged date : UTC 2017-02-26 08:39:34

Text #2ID : 6Format : Timed TextMuxing mode : sbtlCodec ID : tx3gDuration : 1 h 37 minBit rate mode : VariableBit rate : 77 b/sStream size : 55.4 KiB (0%)Title : Full / FullLanguage : RussianDefault : NoForced : NoAlternate group : 2Encoded date : UTC 2017-02-26 08:39:34Tagged date : UTC 2017-02-26 08:39:34

Text #3ID : 7Format : Timed TextMuxing mode : sbtlCodec ID : tx3gDuration : 1 h 37 minBit rate mode : VariableBit rate : 78 b/sStream size : 56.1 KiB (0%)Title : Full / FullLanguage : UkrainianDefault : NoForced : NoAlternate group : 2Encoded date : UTC 2017-02-26 08:39:34Tagged date : UTC 2017-02-26 08:39:34

Text #4ID : 8Format : Timed TextMuxing mode : sbtlCodec ID : tx3gDuration : 1 h 37 minBit rate mode : VariableBit rate : 51 b/sStream size : 36.4 KiB (0%)Title : Full / FullLanguage : EnglishDefault : NoForced : NoAlternate group : 2Encoded date : UTC 2017-02-26 08:39:34Tagged date : UTC 2017-02-26 08:39:34

Text #5ID : 9Format : Timed TextMuxing mode : sbtlCodec ID : tx3gDuration : 1 h 44 minBit rate mode : VariableBit rate : 53 b/sStream size : 41.0 KiB (0%)Title : SDH / SDHLanguage : EnglishDefault : NoForced : NoAlternate group : 2Encoded date : UTC 2017-02-26 08:39:34Tagged date : UTC 2017-02-26 08:39:34


Трекер:  [ 26-Фев-2017 11:30 ]

  

Скачать .torrent

Размер .torrent файла 16 KB


Размер: 1.57 GB
Хэш (hash) релиза: a7e6eecacc8714a02006ed7e6f5cd98eff864fce

Торренты, похожие на [VIDEO] Президент Линкольн: Охотник на вампиров Abraham Lincoln: Vampire Hunter скачать торрент

Форум Название Автор Размер S L Добавлен
Видео (Фильмы/Клипы) ·· [VIDEO] Президент Линкольн: Охотник на вампиров / Abraham Lincoln: Vampire Hunter (Тимур Бекмамбетов / Timur Bekmambetov) [2012, США, ужасы, фэнтези, боевик, триллер, HDRip][MP4, 640x] Galfimbul 897245212856 MB 0 0 1356340920

12:22

24-Дек-12

Еще никто не оставлял запись к записи скачать торрент [VIDEO] Президент Линкольн: Охотник на вампиров Abraham Lincoln: Vampire Hunter . Будь первым!

!Обратная связь