Josh Roessler | 9-1-1 Season1 EP1 – EP10 [จบ] พากย์ไทย | Satsuki Decoder Pack v5.1.0.4.

Скачать через торрент [MULT] Тролли Trolls бесплатно русская версия torrent активатор

Статистика раздачи
Размер:  1.64 GB   |    Зарегистрирован:  1 год 5 месяцев   |    .torrent скачан:  31 раз   |   
Раздают:  1  
   
загрузка...
 
Автор Сообщение

Galfimbul

avatar Galfimbul


Тролли / Trolls
«Найди своё счастье»
Премьера: 8 октября 2016
Оригинальное название: Trolls
Страна: США
Жанр: мультфильм, мюзикл, фэнтези, комедия, приключения, семейный
Возраст: 6+

Режиссер: Уолт Дорн, Майк Митчелл / Walt Dohrn, Mike Mitchell

В ролях: Анна Кендрик, Зои Дешанель, Джастин Тимберлэйк, Кристин Барански, Джеффри Тэмбор, Кристофер Минц-Плассе, Джеймс Корден, Кунал Найяр, Гвен Стефани, Расселл Брэнд

Описание: Отправляясь в увлекательное приключение, которое заведет ее далеко от привычного мира, Розочка объединяет усилия с самым мрачным троллем на свете по имени Цветан, чтобы спасти друзей из лап зловещих бергенов и их лидера, короля Хряща Старшего. Невероятные приключения Розочки проверят её силу, покажут истинную суть и бросят вызов способности ударяться в пение в любой момент.

Продолжительность: 01:32:28
Перевод: Дублированный [Лицензия]
Оригинальная дорожка: есть

Автор рипа:

Качество видео: BDRip Исходник: Blu-Ray Remux (1080p) Формат: mp4
Видео кодек: MPEG-4 AVC Аудио кодек: AAC
Видео: 1280x544 (2.35:1) at 23.976 fps, AVC at 2 265 kbps avg, 0.136 bit/pixel
Аудио №1 Rus: 48.0 KHz, AAC, 2 ch, 128.0 Kbps
Аудио №2 Eng: 48.0 KHz, AAC, 2 ch, 128.0 Kbps
Субтитры: русские (полные), английские (полные)
Навигация по главам: есть
Размер: 1.64 GiB
avs [info]: 1280x544p 1:1 @ 24000/1001 fps (cfr)
x264 [info]: using SAR=1/1
x264 [info]: using cpu capabilities: MMX2 SSE2Fast SSSE3 Cache64
x264 [info]: profile High, level 4.1
x264 [info]: frame I:1387 Avg QP:13.37 size:106315
x264 [info]: frame P:30924 Avg QP:17.14 size: 25406
x264 [info]: frame B:100719 Avg QP:20.27 size: 6336
x264 [info]: consecutive B-frames: 3.0% 3.0% 11.6% 27.6% 18.3% 20.8% 4.9% 4.1% 6.9%
x264 [info]: mb I I16..4: 9.8% 69.8% 20.4%
x264 [info]: mb P I16..4: 2.5% 11.1% 1.5% P16..4: 38.7% 19.2% 11.2% 0.0% 0.0% skip:15.8%
x264 [info]: mb B I16..4: 0.2% 0.8% 0.2% B16..8: 35.3% 6.1% 1.8% direct: 3.0% skip:52.7% L0:42.5% L1:48.8% BI: 8.7%
x264 [info]: 8x8 transform intra:72.4% inter:62.8%
x264 [info]: coded y,uvDC,uvAC intra: 74.7% 81.4% 56.0% inter: 13.5% 15.2% 3.6%
x264 [info]: i16 v,h,dc,p: 20% 14% 7% 59%
x264 [info]: i8 v,h,dc,ddl,ddr,vr,hd,vl,hu: 8% 9% 6% 10% 14% 13% 14% 12% 14%
x264 [info]: i4 v,h,dc,ddl,ddr,vr,hd,vl,hu: 7% 8% 5% 10% 16% 14% 15% 11% 14%
x264 [info]: i8c dc,h,v,p: 34% 26% 17% 23%
x264 [info]: Weighted P-Frames: Y:3.5% UV:2.8%
x264 [info]: ref P L0: 57.1% 10.0% 14.2% 6.1% 4.0% 3.6% 2.6% 2.0% 0.3% 0.0%
x264 [info]: ref B L0: 82.5% 8.7% 4.3% 1.7% 1.5% 0.8% 0.5%
x264 [info]: ref B L1: 92.9% 7.1%
x264 [info]: kb/s:2265.45
encoded 133030 frames, 2.50 fps, 2265.45 kb/s
GeneralFormat : MPEG-4Format profile : Base MediaCodec ID : isom (isom)File size : 1.64 GiBDuration : 1 h 32 minOverall bit rate mode : VariableOverall bit rate : 2 533 kb/sMovie name : Тролли | KinoGadgetPerformer : Уолт Дорн, Майк МитчеллDirector : Уолт Дорн / Майк МитчеллActor : Анна Кендрик / Зои Дешанель / Джастин Тимберлэйк / Кристин Барански / Джеффри Тэмбор / Кристофер Минц-Плассе / Джеймс Корден / Кунал Найяр / Гвен Стефани / Расселл БрэндScreenplay by : Джонатан Айбел / Гленн Бергер / Thomas DamProducer : Джонатан Айбел / Гленн Бергер / Холли ЭдвардсGenre : Adventure, Animation, ComedyContentType : Short FilmRecorded date : 2016Encoded date : UTC 2017-02-25 06:30:21Tagged date : UTC 2017-02-25 06:54:17Cover : YesContentRating : mpaa|PG|200|LongDescription : Отправляясь в увлекательное приключение, которое заведет ее далеко от привычного мира, Розочка объединяет усилия с самым мрачным троллем на свете по имени Цветан, чтобы спасти друзей из лап зловещих бергенов и их лидера, короля Хряща Старшего. Невероятные приключения Розочки проверят её силу, покажут истинную суть и бросят вызов способности ударяться в пение в любой момент.HDVideo : Yes

VideoID : 1Format : AVCFormat/Info : Advanced Video CodecFormat profile : [email protected] settings, CABAC : YesFormat settings, ReFrames : 8 framesCodec ID : avc1Codec ID/Info : Advanced Video CodingDuration : 1 h 32 minBit rate : 2 265 kb/sMaximum bit rate : 17.8 Mb/sWidth : 1 280 pixelsHeight : 544 pixelsDisplay aspect ratio : 2.35:1Frame rate mode : ConstantFrame rate : 23.976 (24000/1001) FPSColor space : YUVChroma subsampling : 4:2:0Bit depth : 8 bitsScan type : ProgressiveBits/(Pixel*Frame) : 0.136Stream size : 1.46 GiB (89%)Writing library : x264 core 148 r2638 7599210Encoding settings : cabac=1 / ref=8 / deblock=1:1:1 / analyse=0x3:0x113 / me=umh / subme=9 / psy=1 / psy_rd=1.00:0.00 / mixed_ref=1 / me_range=32 / chroma_me=1 / trellis=2 / 8x8dct=1 / cqm=0 / deadzone=21,11 / fast_pskip=0 / chroma_qp_offset=-2 / threads=3 / lookahead_threads=1 / sliced_threads=0 / nr=0 / decimate=1 / interlaced=0 / bluray_compat=0 / constrained_intra=0 / bframes=8 / b_pyramid=2 / b_adapt=2 / b_bias=0 / direct=1 / weightb=1 / open_gop=0 / weightp=2 / keyint=250 / keyint_min=25 / scenecut=40 / intra_refresh=0 / rc_lookahead=60 / rc=crf / mbtree=1 / crf=18.0 / qcomp=0.60 / qpmin=0 / qpmax=69 / qpstep=4 / vbv_maxrate=62500 / vbv_bufsize=78125 / crf_max=0.0 / nal_hrd=none / filler=0 / ip_ratio=1.40 / aq=1:1.00Encoded date : UTC 2017-02-25 00:06:08Tagged date : UTC 2017-02-25 06:30:52

Audio #1ID : 2Format : AACFormat/Info : Advanced Audio CodecFormat profile : LCCodec ID : 40Duration : 1 h 32 minBit rate mode : VariableBit rate : 128 kb/sMaximum bit rate : 135 kb/sChannel(s) : 2 channelsChannel positions : Front: L RSampling rate : 48.0 kHzFrame rate : 46.875 FPS (1024 spf)Compression mode : LossyStream size : 84.6 MiB (5%)Title : Dub [License]Language : RussianEncoded date : UTC 2017-02-25 00:12:20Tagged date : UTC 2017-02-25 06:30:52

Audio #2ID : 3Format : AACFormat/Info : Advanced Audio CodecFormat profile : LCCodec ID : 40Duration : 1 h 32 minBit rate mode : VariableBit rate : 128 kb/sMaximum bit rate : 135 kb/sChannel(s) : 2 channelsChannel positions : Front: L RSampling rate : 48.0 kHzFrame rate : 46.875 FPS (1024 spf)Compression mode : LossyStream size : 84.6 MiB (5%)Title : OriginalLanguage : EnglishEncoded date : UTC 2017-02-25 00:22:50Tagged date : UTC 2017-02-25 06:30:52

Text #1ID : 4Format : Timed TextCodec ID : tx3gDuration : 1 h 32 minBit rate mode : VariableBit rate : 111 b/sStream size : 75.1 KiB (0%)Title : FullLanguage : RussianForced : NoEncoded date : UTC 2017-02-25 06:30:52Tagged date : UTC 2017-02-25 06:30:52

Text #2ID : 5Format : Timed TextCodec ID : tx3gDuration : 1 h 24 minBit rate mode : VariableBit rate : 80 b/sStream size : 49.4 KiB (0%)Title : FullLanguage : EnglishForced : NoEncoded date : UTC 2017-02-25 06:30:52Tagged date : UTC 2017-02-25 06:30:52

Menu00:00:00.000 : 100:02:19.472 : 200:06:21.922 : 300:10:41.640 : 400:13:25.595 : 500:18:33.361 : 600:22:11.787 : 700:25:40.078 : 800:28:52.728 : 900:32:54.094 : 1000:36:32.103 : 1100:40:55.783 : 1200:44:20.654 : 1300:47:26.965 : 1400:51:26.079 : 1500:55:44.670 : 1600:59:57.756 : 1701:03:16.079 : 1801:05:16.657 : 1901:07:55.524 : 2001:10:24.256 : 2101:13:30.650 : 2201:16:20.236 : 2301:21:43.726 : 24


Трекер:  [ 25-Фев-2017 09:00 ]

  

Скачать .torrent

Размер .torrent файла 17 KB


Размер: 1.64 GB
Хэш (hash) релиза: 6645760b43ce5cdb481e82da447cf4fc91ea34f5

Еще никто не оставлял запись к записи скачать торрент [MULT] Тролли Trolls . Будь первым!

!Обратная связь