bludv filmes | Читать дальше | Michael J. Sheehy - Sweet Blue Gene

Скачать через торрент [MULT] Тролли Trolls бесплатно русская версия torrent активатор

Статистика раздачи
Размер:  427 MB   |    Зарегистрирован:  1 год 4 месяца   |    .torrent скачан:  29 раз   |   
Раздают:  1  
   
загрузка...
 
Автор Сообщение

Galfimbul

avatar Galfimbul


Тролли / Trolls

Год выпуска: 2016
Страна: США / DreamWorks Animation
Жанр: мультфильм, мюзикл, фэнтези, комедия, приключения, семейный
Продолжительность: 01:32:27
Перевод : русский Профессиональный (полное дублирование) Blu-ray CEE
Cубтитры: нет
Режиссеры: Уолт Дорн /Walt Dohrn, Майк Митчелл / Mike Mitchell
Роли озвучивали: Aнна Кендрик, Джастин Тимберлэйк, Зои Дешанель, Кристофер Минц-Плассе, Кристин Барански, Расселл Брэнд, Гвен Стефани, Джон Клиз, Джеймс Корден, Джеффри Тэмбор и другие .
Описание: Отправляясь в увлекательное приключение, которое заведет ее далеко от привычного ей мира, Розочка объединяет усилия с самым мрачным троллем на свете по имени Цветан для достижения успеха в своей смелой миссии спасти ее друзей из тисков зловещих бергенов и их лидера, короля Хрящ Старший. Невероятные приключения Розочки проверят ее силу, покажут ее истинную суть и бросят вызов ее способности ударяться в пение в любой момент.
Релиз группы
Качество: HDRip / рип с BDRip 720p (HDClub)
Формат: MP4
Видео кодек: XviD
Аудио кодек: AAC
Видео: 480x200 AR:2.40 509 kbps 23.976 fps
Аудио: [Russian] 2ch 48 kHz 128 kbps - [Dub] Профессиональный (полное дублирование) Blu-ray CEE
GeneralComplete name : D:\Torrents\Trolls.2016.HDRip.XviD.480x.rip by Frost O.S.mp4Format : MPEG-4Format profile : Base MediaCodec ID : isom (isom/iso2)File size : 427 MiBDuration : 1 h 32 minOverall bit rate mode : VariableOverall bit rate : 645 kb/sMovie name : Trolls 2016 HDRip XviD 480x rip by Frost O SGenre : AnimationContentType : Short FilmEncoded date : UTC 2017-02-24 18:54:04Tagged date : UTC 2017-02-24 18:54:47Writing application : MkvToMp4 version: 0.224 (x64)Cover : YesComment : rip by Frost O.S

VideoID : 1Format : MPEG-4 VisualFormat profile : Advanced [email protected] settings, BVOP : YesFormat settings, QPel : NoFormat settings, GMC : No warppointsFormat settings, Matrix : CustomCodec ID : 20Duration : 1 h 32 minBit rate mode : VariableBit rate : 509 kb/sMaximum bit rate : 3 011 kb/sWidth : 480 pixelsHeight : 200 pixelsDisplay aspect ratio : 2.40:1Frame rate mode : ConstantFrame rate : 23.976 (24000/1001) FPSOriginal frame rate : 23.976 (23976/1000) FPSColor space : YUVChroma subsampling : 4:2:0Bit depth : 8 bitsScan type : ProgressiveCompression mode : LossyBits/(Pixel*Frame) : 0.221Stream size : 337 MiB (79%)Title : avi_GPAC0.5.2_DEV_rev248_g39d5978_masterWriting library : XviD 1.2.1 (UTC 2008-12-04)Language : EnglishTagged date : UTC 2017-02-24 18:54:13

AudioID : 2Format : AACFormat/Info : Advanced Audio CodecFormat profile : LCCodec ID : 40Duration : 1 h 32 minBit rate mode : VariableBit rate : 128 kb/sMaximum bit rate : 135 kb/sChannel(s) : 2 channelsChannel positions : Front: L RSampling rate : 48.0 kHzFrame rate : 46.875 FPS (1024 spf)Compression mode : LossyStream size : 84.6 MiB (20%)Title : Dub_ Blu_ray CEE / Dub_ Blu_ray CEELanguage : RussianDefault : YesAlternate group : 1Encoded date : UTC 2017-02-24 18:54:11Tagged date : UTC 2017-02-24 18:54:13


Трекер:  [ 24-Фев-2017 21:30 ]

  

Скачать .torrent

Размер .torrent файла 17 KB


Размер: 427 MB
Хэш (hash) релиза: ec074ea97a899f72fd74a248c9875b9852d6f2c7

Еще никто не оставлял запись к записи скачать торрент [MULT] Тролли Trolls . Будь первым!

!Обратная связь