Education | Арт-хаус / Авторское кино | Download

Скачать через торрент [MULT] Тролли Trolls бесплатно русская версия torrent активатор

Статистика раздачи
Размер:  1.38 GB   |    Зарегистрирован:  1 год 4 месяца   |    .torrent скачан:  32 раза   |   
Раздают:  1  
   
загрузка...
 
Автор Сообщение

Galfimbul

avatar Galfimbul


Тролли / Trolls

Год выпуска: 2016
Страна: США / DreamWorks Animation
Жанр: мультфильм, мюзикл, фэнтези, комедия, приключения, семейный
Продолжительность: 01:32:27
Перевод №1: русский Профессиональный (полное дублирование) Blu-ray CEE
Перевод №2: украинский Профессиональный (полное дублирование) Blu-ray CEE
Оригинальная дорожка: Есть
Cубтитры: русские, украинские, английские
Режиссеры: Уолт Дорн /Walt Dohrn, Майк Митчелл / Mike Mitchell
Роли озвучивали: Aнна Кендрик, Джастин Тимберлэйк, Зои Дешанель, Кристофер Минц-Плассе, Кристин Барански, Расселл Брэнд, Гвен Стефани, Джон Клиз, Джеймс Корден, Джеффри Тэмбор и другие .
Описание: Отправляясь в увлекательное приключение, которое заведет ее далеко от привычного ей мира, Розочка объединяет усилия с самым мрачным троллем на свете по имени Цветан для достижения успеха в своей смелой миссии спасти ее друзей из тисков зловещих бергенов и их лидера, короля Хрящ Старший. Невероятные приключения Розочки проверят ее силу, покажут ее истинную суть и бросят вызов ее способности ударяться в пение в любой момент.
Релиз группы
Качество: BDRip / рип с Blu-ray 1080p CEE
Формат: MP4
Видео кодек: H.264
Аудио кодек: AAC
Видео: 960x408 AR:2.35 1740 kbps 23.976 fps
Аудио №1: [Russian] 2ch 48 kHz 128 kbps - [Dub] Профессиональный (полное дублирование) Blu-ray CEE
Аудио №2: [Ukrainian] 2ch 48 kHz 128 kbps - [Dub] Профессиональный (полное дублирование) Blu-ray CEE
Аудио №3: [English] 2ch 48 kHz 128 kbps - Оригинал
avs [info]: 960x408p 1:1 @ 2997/125 fps (cfr)
x264 [info]: using SAR=1/1
x264 [info]: using cpu capabilities: MMX2 SSE2Fast SSSE3 SSE4.2 AVX FMA3 AVX2 LZCNT BMI2
x264 [info]: profile High, level 4.1

x264 [info]: frame I:1310 Avg QP:13.33 size: 64638
x264 [info]: frame P:35281 Avg QP:16.33 size: 17690
x264 [info]: frame B:96403 Avg QP:18.46 size: 5156
x264 [info]: consecutive B-frames: 4.8% 5.6% 14.3% 29.3% 17.4% 18.3% 4.3% 2.5% 1.7% 0.9% 0.9%
x264 [info]: mb I I16..4: 6.5% 70.7% 22.8%
x264 [info]: mb P I16..4: 1.0% 11.9% 2.2% P16..4: 25.3% 30.0% 12.2% 0.0% 0.0% skip:17.4%
x264 [info]: mb B I16..4: 0.1% 1.2% 0.2% B16..8: 28.3% 18.0% 3.5% direct: 3.3% skip:45.2% L0:40.0% L1:44.0% BI:16.1%
x264 [info]: 8x8 transform intra:77.8% inter:55.3%
x264 [info]: direct mvs spatial:90.3% temporal:9.7%
x264 [info]: coded y,uvDC,uvAC intra: 87.3% 89.2% 73.7% inter: 16.8% 16.1% 9.5%
x264 [info]: i16 v,h,dc,p: 19% 8% 5% 68%
x264 [info]: i8 v,h,dc,ddl,ddr,vr,hd,vl,hu: 11% 9% 7% 9% 12% 12% 13% 12% 15%
x264 [info]: i4 v,h,dc,ddl,ddr,vr,hd,vl,hu: 12% 7% 7% 9% 15% 13% 14% 10% 13%
x264 [info]: i8c dc,h,v,p: 38% 25% 16% 21%
x264 [info]: Weighted P-Frames: Y:8.2% UV:6.3%
x264 [info]: ref P L0: 57.4% 10.5% 14.7% 5.7% 4.0% 3.2% 2.6% 1.8% 0.2% 0.0%
x264 [info]: ref B L0: 80.8% 9.6% 4.7% 2.1% 1.6% 0.9% 0.4%
x264 [info]: ref B L1: 95.1% 4.9%
x264 [info]: kb/s:1739.14

encoded 132994 frames, 16.12 fps, 1739.14 kb/s
GeneralComplete name : D:\Torrents\Trolls.2016.BDRip.x264.960x.rip by Frost O.S.mp4Format : MPEG-4Format profile : Base MediaCodec ID : isom (isom/avc1/iso2)File size : 1.38 GiBDuration : 1 h 32 minOverall bit rate mode : VariableOverall bit rate : 2 139 kb/sMovie name : Trolls 2016 BDRip x264 960x rip by Frost O SGenre : AnimationContentType : Short FilmEncoded date : UTC 2017-02-24 18:45:08Tagged date : UTC 2017-02-24 18:47:37Writing application : MkvToMp4 version: 0.224 (x64)Cover : YesComment : rip by Frost O.S

VideoID : 1Format : AVCFormat/Info : Advanced Video CodecFormat profile : [email protected] settings, CABAC : YesFormat settings, ReFrames : 8 framesCodec ID : avc1Codec ID/Info : Advanced Video CodingDuration : 1 h 32 minBit rate : 1 740 kb/sMaximum bit rate : 10.0 Mb/sWidth : 960 pixelsHeight : 408 pixelsDisplay aspect ratio : 2.35:1Frame rate mode : ConstantFrame rate : 23.976 (24000/1001) FPSOriginal frame rate : 23.976 (23976/1000) FPSColor space : YUVChroma subsampling : 4:2:0Bit depth : 8 bitsScan type : ProgressiveBits/(Pixel*Frame) : 0.185Stream size : 1.12 GiB (81%)Writing library : x264 core 148 r2705 3f5ed56Encoding settings : cabac=1 / ref=8 / deblock=1:-3:-3 / analyse=0x3:0x113 / me=umh / subme=11 / psy=1 / psy_rd=0.95:0.00 / mixed_ref=1 / me_range=32 / chroma_me=1 / trellis=2 / 8x8dct=1 / cqm=0 / deadzone=21,11 / fast_pskip=0 / chroma_qp_offset=-2 / threads=6 / lookahead_threads=1 / sliced_threads=0 / nr=0 / decimate=0 / interlaced=0 / bluray_compat=0 / constrained_intra=0 / bframes=10 / b_pyramid=2 / b_adapt=2 / b_bias=0 / direct=3 / weightb=1 / open_gop=0 / weightp=2 / keyint=250 / keyint_min=23 / scenecut=40 / intra_refresh=0 / rc=2pass / mbtree=0 / bitrate=1740 / ratetol=1.0 / qcomp=0.80 / qpmin=0 / qpmax=69 / qpstep=4 / cplxblur=20.0 / qblur=0.5 / ip_ratio=1.40 / pb_ratio=1.30 / aq=3:1.00Language : EnglishEncoded date : UTC 2017-02-24 18:45:08Tagged date : UTC 2017-02-24 18:46:07Color range : LimitedColor primaries : BT.709Transfer characteristics : BT.709Matrix coefficients : BT.709

Audio #1ID : 2Format : AACFormat/Info : Advanced Audio CodecFormat profile : LCCodec ID : 40Duration : 1 h 32 minBit rate mode : VariableBit rate : 128 kb/sMaximum bit rate : 135 kb/sChannel(s) : 2 channelsChannel positions : Front: L RSampling rate : 48.0 kHzFrame rate : 46.875 FPS (1024 spf)Compression mode : LossyStream size : 84.6 MiB (6%)Title : Dub_ Blu_ray CEE / Dub_ Blu_ray CEELanguage : RussianDefault : YesAlternate group : 1Encoded date : UTC 2017-02-24 18:45:48Tagged date : UTC 2017-02-24 18:46:07

Audio #2ID : 3Format : AACFormat/Info : Advanced Audio CodecFormat profile : LCCodec ID : 40Duration : 1 h 32 minBit rate mode : VariableBit rate : 128 kb/sMaximum bit rate : 135 kb/sChannel(s) : 2 channelsChannel positions : Front: L RSampling rate : 48.0 kHzFrame rate : 46.875 FPS (1024 spf)Compression mode : LossyStream size : 84.6 MiB (6%)Title : Dub_ Blu_ray CEE / Dub_ Blu_ray CEELanguage : UkrainianDefault : NoAlternate group : 1Encoded date : UTC 2017-02-24 18:45:56Tagged date : UTC 2017-02-24 18:46:07

Audio #3ID : 4Format : AACFormat/Info : Advanced Audio CodecFormat profile : LCCodec ID : 40Duration : 1 h 32 minBit rate mode : VariableBit rate : 128 kb/sMaximum bit rate : 135 kb/sChannel(s) : 2 channelsChannel positions : Front: L RSampling rate : 48.0 kHzFrame rate : 46.875 FPS (1024 spf)Compression mode : LossyStream size : 84.6 MiB (6%)Title : Original / OriginalLanguage : EnglishDefault : NoAlternate group : 1Encoded date : UTC 2017-02-24 18:46:01Tagged date : UTC 2017-02-24 18:46:07

Text #1ID : 5Format : Timed TextMuxing mode : sbtlCodec ID : tx3gDuration : 1 h 32 minBit rate mode : VariableBit rate : 111 b/sStream size : 75.1 KiB (0%)Title : iTunes / iTunesLanguage : RussianDefault : YesForced : NoAlternate group : 2Encoded date : UTC 2017-02-24 18:46:07Tagged date : UTC 2017-02-24 18:46:07

Text #2ID : 6Format : Timed TextMuxing mode : sbtlCodec ID : tx3gDuration : 1 h 32 minBit rate mode : VariableBit rate : 103 b/sStream size : 69.9 KiB (0%)Title : iTunes / iTunesLanguage : UkrainianDefault : NoForced : NoAlternate group : 2Encoded date : UTC 2017-02-24 18:46:07Tagged date : UTC 2017-02-24 18:46:07

Text #3ID : 7Format : Timed TextMuxing mode : sbtlCodec ID : tx3gDuration : 1 h 24 minBit rate mode : VariableBit rate : 80 b/sStream size : 49.3 KiB (0%)Title : iTunes / iTunesLanguage : EnglishDefault : NoForced : NoAlternate group : 2Encoded date : UTC 2017-02-24 18:46:07Tagged date : UTC 2017-02-24 18:46:07


Трекер:  [ 24-Фев-2017 21:00 ]

  

Скачать .torrent

Размер .torrent файла 14 KB


Размер: 1.38 GB
Хэш (hash) релиза: 0cc0c6b7a17b0d2d0cf81d94837d730597f96100

Еще никто не оставлял запись к записи скачать торрент [MULT] Тролли Trolls . Будь первым!

!Обратная связь