Burza / La Tempestad | Brand New Brand Thinking: Brought to Life by 11 Experts Who Do | Hjørdis

Скачать через торрент [VIDEO] Русалка The Mermaid бесплатно русская версия torrent активатор

Статистика раздачи
Размер:  1.47 GB   |    Зарегистрирован:  1 год 4 месяца   |    .torrent скачан:  19 раз   |   
Раздают:  1  
   
загрузка...
 
Автор Сообщение

Galfimbul

avatar Galfimbul


Русалка / The Mermaid / Mei ren yu

Год выпуска: 2016
Страна: Китай
Жанр: комедия, мелодрама, фантастика
Продолжительность: 01:33:46
Перевод: Одноголосый (закадровый) zamez
Cубтитры: нет
Режиссер: Стивен Чоу / Stephen Chow
В ролях: Линь Юнь, Вэнь Чжан, Дэн Чао, Китти Чжан, Шоу Ло, Ву И Фань и другие .
Описание: Богатый мужчина решает построить новый курорт на берегу моря. Правдой и неправдой ему удается приобрести значительную часть морского заповедника – дома для дельфинов и прочих обитателей морских вод. Совсем скоро становится ясно: бизнесмен не собирается ни с кем возиться, его интересуют только деньги, и чтобы получить первый доход как можно скорее, он готов любыми способами избавиться от всех «лишних» существ.
Как спасти животный мир от полного исчезновения? Это задание берет на себя русалка. Да-да, настоящая русалка! Обладая невероятной красотой, она решает соблазнить миллионера, и, заполучив его доверие, убить его. Первая часть плана прошла отлично: бизнесмен действительно влюбляется в русалку и уже готов исполнить любой ее каприз. Но когда приходит момент закончить начатое дело, русалка внезапно понимает, что сама имеет некоторые чувства. Что делать? Послушать голос разума и убить бизнесмена, или же послушаться сердца и дать волю чувствам, при этом предав своих друзей. Нелегкий выбор, не так ли?

Качество: HDRip / рип с BDRip 720p
Формат: MP4
Видео кодек: H.264
Аудио кодек: AAC
Видео: 960x510 AR:1.882 2101 kbps 23.976 fps
Аудио: [Русский] 2ch 48 kHz 128 kbps - [VO] Одноголосый (закадровый) zamez
avs [info]: 960x510p 1:1 @ 2997/125 fps (cfr)
x264 [info]: using SAR=1/1
x264 [info]: using cpu capabilities: MMX2 SSE2Fast SSSE3 SSE4.2 AVX FMA3 AVX2 LZCNT BMI2
x264 [info]: profile High, level 4.1

x264 [info]: frame I:1283 Avg QP:21.74 size: 60774
x264 [info]: frame P:29300 Avg QP:23.51 size: 22109
x264 [info]: frame B:104299 Avg QP:26.02 size: 7208
x264 [info]: consecutive B-frames: 1.9% 1.7% 7.4% 27.9% 16.7% 36.7% 4.7% 1.3% 0.8% 0.9%
x264 [info]: mb I I16..4: 10.2% 62.5% 27.3%
x264 [info]: mb P I16..4: 1.1% 9.0% 2.4% P16..4: 32.4% 31.3% 10.1% 0.0% 0.0% skip:13.7%
x264 [info]: mb B I16..4: 0.1% 1.7% 0.4% B16..8: 29.1% 14.4% 3.0% direct: 3.7% skip:47.8% L0:38.5% L1:47.1% BI:14.4%
x264 [info]: 8x8 transform intra:72.2% inter:58.4%
x264 [info]: coded y,uvDC,uvAC intra: 84.4% 85.7% 64.7% inter: 16.5% 19.1% 6.5%
x264 [info]: i16 v,h,dc,p: 17% 20% 6% 57%
x264 [info]: i8 v,h,dc,ddl,ddr,vr,hd,vl,hu: 7% 8% 5% 10% 15% 13% 16% 12% 15%
x264 [info]: i4 v,h,dc,ddl,ddr,vr,hd,vl,hu: 9% 9% 4% 9% 14% 13% 15% 11% 16%
x264 [info]: i8c dc,h,v,p: 39% 23% 17% 21%
x264 [info]: Weighted P-Frames: Y:10.5% UV:7.8%
x264 [info]: ref P L0: 51.3% 13.9% 15.5% 5.4% 4.7% 3.2% 2.8% 1.5% 1.6% 0.2% 0.0%
x264 [info]: ref B L0: 83.4% 7.4% 3.6% 1.7% 1.6% 1.3% 0.7% 0.2%
x264 [info]: ref B L1: 95.9% 4.1%
x264 [info]: kb/s:2101.16

encoded 134882 frames, 11.25 fps, 2101.16 kb/s
GeneralComplete name : D:\Torrents\The Mermaid.2016.HDRip.x264.960x.rip by Frost O.S.mp4Format : MPEG-4Format profile : Base MediaCodec ID : isom (isom/avc1/iso2)File size : 1.47 GiBDuration : 1 h 33 minOverall bit rate mode : VariableOverall bit rate : 2 237 kb/sMovie name : The Mermaid 2016 HDRip x264 960x rip by Frost O SGenre : ComedyContentType : Short FilmEncoded date : UTC 2017-02-24 11:10:48Tagged date : UTC 2017-02-24 11:12:58Writing application : MkvToMp4 version: 0.224 (x64)Cover : YesComment : rip by Frost O.S

VideoID : 1Format : AVCFormat/Info : Advanced Video CodecFormat profile : [email protected] settings, CABAC : YesFormat settings, ReFrames : 9 framesCodec ID : avc1Codec ID/Info : Advanced Video CodingDuration : 1 h 33 minBit rate : 2 101 kb/sMaximum bit rate : 15.6 Mb/sWidth : 960 pixelsHeight : 510 pixelsDisplay aspect ratio : 1.882Frame rate mode : ConstantFrame rate : 23.976 (24000/1001) FPSOriginal frame rate : 23.976 (23976/1000) FPSColor space : YUVChroma subsampling : 4:2:0Bit depth : 8 bitsScan type : ProgressiveBits/(Pixel*Frame) : 0.179Stream size : 1.38 GiB (94%)Writing library : x264 core 148 r2705 3f5ed56Encoding settings : cabac=1 / ref=9 / deblock=1:-1:-1 / analyse=0x3:0x113 / me=umh / subme=11 / psy=1 / psy_rd=0.90:0.00 / mixed_ref=1 / me_range=32 / chroma_me=1 / trellis=2 / 8x8dct=1 / cqm=0 / deadzone=21,11 / fast_pskip=1 / chroma_qp_offset=-2 / threads=6 / lookahead_threads=1 / sliced_threads=0 / nr=0 / decimate=1 / interlaced=0 / bluray_compat=0 / constrained_intra=0 / bframes=9 / b_pyramid=2 / b_adapt=2 / b_bias=0 / direct=1 / weightb=1 / open_gop=0 / weightp=2 / keyint=250 / keyint_min=23 / scenecut=40 / intra_refresh=0 / rc=crf / mbtree=0 / crf=20.9 / qcomp=0.65 / qpmin=0 / qpmax=69 / qpstep=4 / ip_ratio=1.40 / pb_ratio=1.30 / aq=2:0.70Language : EnglishEncoded date : UTC 2017-02-24 11:10:48Tagged date : UTC 2017-02-24 11:11:43Color range : LimitedColor primaries : BT.709Transfer characteristics : BT.709Matrix coefficients : BT.709

AudioID : 2Format : AACFormat/Info : Advanced Audio CodecFormat profile : LCCodec ID : 40Duration : 1 h 33 minBit rate mode : VariableBit rate : 128 kb/sMaximum bit rate : 135 kb/sChannel(s) : 2 channelsChannel positions : Front: L RSampling rate : 48.0 kHzFrame rate : 46.875 FPS (1024 spf)Compression mode : LossyStream size : 85.8 MiB (6%)Title : VO_ zamez / VO_ zamezLanguage : RussianDefault : YesAlternate group : 1Encoded date : UTC 2017-02-24 11:11:34Tagged date : UTC 2017-02-24 11:11:43


Трекер:  [ 24-Фев-2017 13:30 ]

  

Скачать .torrent

Размер .torrent файла 15 KB


Размер: 1.47 GB
Хэш (hash) релиза: ad42179d3c3551bf7e1dbeb0047ae5754bac0ed1

Еще никто не оставлял запись к записи скачать торрент [VIDEO] Русалка The Mermaid . Будь первым!

!Обратная связь