下載 APK | Dawn of Titans - Epische oorlogsstrategiegame | Pharanyu Rojanawuthitham

Скачать через торрент [VIDEO] Морозко бесплатно русская версия torrent активатор

Статистика раздачи
Размер:  1.03 GB   |    Зарегистрирован:  1 год 4 месяца   |    .torrent скачан:  33 раза   |   
Раздают:  1  
   
загрузка...
 
Автор Сообщение

Galfimbul

avatar Galfimbul


Морозко

Год выпуска: 1965
Страна: СCCP
Жанр: сказка
Продолжительность: 01:18:50
Перевод: не требуется
Cубтитры: нет
Режиссер: Александр Роу
В ролях: Александр Хвыля, Наталья Седых, Эдуард Изотов, Инна Чурикова, Павел Павленко, Вера Алтайская, Георгий Милляр, Михаил Яншин, Галина Борисова, Анатолий Кубацкий и другие .
Описание: Жила-была хорошая добрая девушка Настенька. Злая мачеха заставляла ее работать, не давая продыху. Однажды она решила избавиться от падчерицы и отправила ту замерзать в зимний лес. В этих же краях жил паренек Иван. Он полюбил Настеньку, да вот только был он большим хвастуном, потому лесной колдун и превратил его в медведя.

[b]Качество
: HDTVRip / [i]рип с HDTV 720p
Формат: MP4
Видео кодек: H.264
Аудио кодек: AAC
Видео: 734x536 AR:4/3 1740 kbps 25 fps
Аудио: 2 ch 48 kHz 128 kbps
avs [info]: 734x536p 1:1 @ 25/1 fps (cfr)
x264 [info]: using SAR=1/1
x264 [info]: using cpu capabilities: MMX2 SSE2Fast SSSE3 SSE4.2 AVX FMA3 AVX2 LZCNT BMI2
x264 [info]: profile High, level 4.1

x264 [info]: frame I:831 Avg QP:19.94 size: 81127
x264 [info]: frame P:40980 Avg QP:23.33 size: 15101
x264 [info]: frame B:76444 Avg QP:24.73 size: 4483
x264 [info]: consecutive B-frames: 11.7% 7.7% 12.8% 48.2% 8.4% 9.8% 0.6% 0.8% 0.1%
x264 [info]: mb I I16..4: 1.2% 75.8% 23.0%
x264 [info]: mb P I16..4: 0.3% 6.9% 1.2% P16..4: 35.6% 28.1% 12.4% 0.0% 0.0% skip:15.5%
x264 [info]: mb B I16..4: 0.0% 1.4% 0.2% B16..8: 28.2% 15.0% 3.1% direct: 3.8% skip:48.4% L0:30.9% L1:50.2% BI:18.9%
x264 [info]: 8x8 transform intra:81.7% inter:58.1%
x264 [info]: direct mvs spatial:97.4% temporal:2.6%
x264 [info]: coded y,uvDC,uvAC intra: 92.1% 83.0% 44.6% inter: 23.7% 16.3% 5.2%
x264 [info]: i16 v,h,dc,p: 15% 15% 5% 66%
x264 [info]: i8 v,h,dc,ddl,ddr,vr,hd,vl,hu: 11% 6% 4% 10% 15% 14% 14% 13% 13%
x264 [info]: i4 v,h,dc,ddl,ddr,vr,hd,vl,hu: 12% 6% 3% 8% 16% 15% 14% 12% 13%
x264 [info]: i8c dc,h,v,p: 35% 22% 20% 22%
x264 [info]: Weighted P-Frames: Y:4.9% UV:2.4%
x264 [info]: ref P L0: 64.8% 17.0% 9.9% 2.5% 2.2% 1.6% 1.8% 0.2% 0.0%
x264 [info]: ref B L0: 91.7% 4.8% 1.8% 0.9% 0.5% 0.3%
x264 [info]: ref B L1: 97.6% 2.4%
x264 [info]: kb/s:1740.18

encoded 118255 frames, 17.19 fps, 1740.18 kb/s
GeneralComplete name : D:\Torrents\Морозко.1965.HDTVRip.x264.960x.rip by Frost O.S.mp4Format : MPEG-4Format profile : Base MediaCodec ID : isom (isom/avc1)File size : 1.03 GiBDuration : 1 h 18 minOverall bit rate mode : VariableOverall bit rate : 1 877 kb/sMovie name : Морозко 1965 HDTVRip x264 960x rip by Frost O SContentType : Short FilmEncoded date : UTC 2017-02-23 20:58:59Tagged date : UTC 2017-02-23 21:00:28Writing application : MkvToMp4 version: 0.224 (x64)Cover : YesComment : rip by Frost O.S

VideoID : 1Format : AVCFormat/Info : Advanced Video CodecFormat profile : [email protected] settings, CABAC : YesFormat settings, ReFrames : 7 framesCodec ID : avc1Codec ID/Info : Advanced Video CodingDuration : 1 h 18 minBit rate : 1 740 kb/sMaximum bit rate : 6 042 kb/sWidth : 734 pixelsHeight : 536 pixelsDisplay aspect ratio : 4:3Frame rate mode : ConstantFrame rate : 25.000 FPSColor space : YUVChroma subsampling : 4:2:0Bit depth : 8 bitsScan type : ProgressiveBits/(Pixel*Frame) : 0.177Stream size : 981 MiB (93%)Writing library : x264 core 148 r2705 3f5ed56Encoding settings : cabac=1 / ref=7 / deblock=1:-1:-1 / analyse=0x3:0x113 / me=umh / subme=11 / psy=1 / psy_rd=0.85:0.00 / mixed_ref=1 / me_range=32 / chroma_me=1 / trellis=2 / 8x8dct=1 / cqm=0 / deadzone=21,11 / fast_pskip=0 / chroma_qp_offset=-2 / threads=6 / lookahead_threads=1 / sliced_threads=0 / nr=0 / decimate=0 / interlaced=0 / bluray_compat=0 / constrained_intra=0 / bframes=8 / b_pyramid=2 / b_adapt=2 / b_bias=0 / direct=3 / weightb=1 / open_gop=0 / weightp=2 / keyint=250 / keyint_min=25 / scenecut=40 / intra_refresh=0 / rc=2pass / mbtree=0 / bitrate=1740 / ratetol=1.0 / qcomp=0.65 / qpmin=0 / qpmax=69 / qpstep=4 / cplxblur=20.0 / qblur=0.5 / ip_ratio=1.40 / pb_ratio=1.30 / aq=3:0.70Language : EnglishEncoded date : UTC 2017-02-23 20:58:59Tagged date : UTC 2017-02-23 20:59:35Color range : LimitedColor primaries : BT.709Transfer characteristics : BT.709Matrix coefficients : BT.709

AudioID : 2Format : AACFormat/Info : Advanced Audio CodecFormat profile : LCCodec ID : 40Duration : 1 h 18 minBit rate mode : VariableBit rate : 128 kb/sMaximum bit rate : 135 kb/sChannel(s) : 2 channelsChannel positions : Front: L RSampling rate : 48.0 kHzFrame rate : 46.875 FPS (1024 spf)Compression mode : LossyStream size : 72.2 MiB (7%)Language : RussianDefault : YesAlternate group : 1Encoded date : UTC 2017-02-23 20:59:27Tagged date : UTC 2017-02-23 20:59:35


Трекер:  [ 23-Фев-2017 23:00 ]

  

Скачать .torrent

Размер .torrent файла 11 KB


Размер: 1.03 GB
Хэш (hash) релиза: 22cd576b9570e362dc003448a4ad7591ea9878b4

Еще никто не оставлял запись к записи скачать торрент [VIDEO] Морозко . Будь первым!

!Обратная связь