Battle Hymn | • Living Biblically 3.3 | July 2014

Скачать через торрент [VIDEO] Русалка The Mermaid бесплатно русская версия torrent активатор

Статистика раздачи
Размер:  420 MB   |    Зарегистрирован:  1 год 4 месяца   |    .torrent скачан:  15 раз   |   
Раздают:  1  
   
загрузка...
 
Автор Сообщение

Galfimbul

avatar Galfimbul


Русалка / The Mermaid / Mei ren yu

Год выпуска: 2016
Страна: Китай
Жанр: комедия, мелодрама, фантастика
Продолжительность: 01:33:45
Перевод: Одноголосый (закадровый) zamez
Cубтитры: нет
Режиссер: Стивен Чоу / Stephen Chow
В ролях: Линь Юнь, Вэнь Чжан, Дэн Чао, Китти Чжан, Шоу Ло, Ву И Фань и другие .
Описание: Богатый мужчина решает построить новый курорт на берегу моря. Правдой и неправдой ему удается приобрести значительную часть морского заповедника – дома для дельфинов и прочих обитателей морских вод. Совсем скоро становится ясно: бизнесмен не собирается ни с кем возиться, его интересуют только деньги, и чтобы получить первый доход как можно скорее, он готов любыми способами избавиться от всех «лишних» существ.
Как спасти животный мир от полного исчезновения? Это задание берет на себя русалка. Да-да, настоящая русалка! Обладая невероятной красотой, она решает соблазнить миллионера, и, заполучив его доверие, убить его. Первая часть плана прошла отлично: бизнесмен действительно влюбляется в русалку и уже готов исполнить любой ее каприз. Но когда приходит момент закончить начатое дело, русалка внезапно понимает, что сама имеет некоторые чувства. Что делать? Послушать голос разума и убить бизнесмена, или же послушаться сердца и дать волю чувствам, при этом предав своих друзей. Нелегкий выбор, не так ли?

Качество: HDRip / рип с BDRip 720p
Формат: MP4
Видео кодек: XviD
Аудио кодек: AAC
Видео: 480x256 AR:1.85 490 kbps 23.976 fps
Аудио: [Русский] 2ch 48 kHz 128 kbps - [VO] Одноголосый (закадровый) zamez
GeneralComplete name : D:\Torrents\The Mermaid.2016.HDRip.XviD.480x.rip by Frost O.S.mp4Format : MPEG-4Format profile : Base MediaCodec ID : isom (isom/iso2)File size : 420 MiBDuration : 1 h 33 minOverall bit rate mode : VariableOverall bit rate : 626 kb/sMovie name : The Mermaid 2016 HDRip XviD 480x rip by Frost O SGenre : ComedyContentType : Short FilmEncoded date : UTC 2017-02-23 17:22:37Tagged date : UTC 2017-02-23 17:23:29Writing application : MkvToMp4 version: 0.224 (x64)Cover : YesComment : rip by Frost O.S

VideoID : 1Format : MPEG-4 VisualFormat profile : Advanced [email protected] settings, BVOP : YesFormat settings, QPel : NoFormat settings, GMC : No warppointsFormat settings, Matrix : CustomCodec ID : 20Duration : 1 h 33 minBit rate mode : VariableBit rate : 490 kb/sMaximum bit rate : 2 879 kb/sWidth : 480 pixelsHeight : 256 pixelsDisplay aspect ratio : 1.85:1Frame rate mode : ConstantFrame rate : 23.976 (24000/1001) FPSOriginal frame rate : 23.976 (23976/1000) FPSColor space : YUVChroma subsampling : 4:2:0Bit depth : 8 bitsScan type : ProgressiveCompression mode : LossyBits/(Pixel*Frame) : 0.166Stream size : 329 MiB (78%)Title : avi_GPAC0.5.2_DEV_rev248_g39d5978_masterWriting library : XviD 1.2.1 (UTC 2008-12-04)Language : EnglishTagged date : UTC 2017-02-23 17:23:02

AudioID : 2Format : AACFormat/Info : Advanced Audio CodecFormat profile : LCCodec ID : 40Duration : 1 h 33 minBit rate mode : VariableBit rate : 128 kb/sMaximum bit rate : 135 kb/sChannel(s) : 2 channelsChannel positions : Front: L RSampling rate : 48.0 kHzFrame rate : 46.875 FPS (1024 spf)Compression mode : LossyStream size : 85.8 MiB (20%)Title : VO zamez / VO zamezLanguage : RussianDefault : YesAlternate group : 1Encoded date : UTC 2017-02-23 17:22:45Tagged date : UTC 2017-02-23 17:23:02


Трекер:  [ 23-Фев-2017 20:00 ]

  

Скачать .torrent

Размер .torrent файла 17 KB


Размер: 420 MB
Хэш (hash) релиза: bbab1f7ce2fb51f871bfdda401aa303b857434ea

Торренты, похожие на [VIDEO] Русалка The Mermaid скачать торрент

Форум Название Автор Размер S L Добавлен
Видео (Фильмы/Клипы) ·· [VIDEO] Русалка / The Mermaid / Mei ren yu (Стивен Чоу / Stephen Chow) [2016, комедия, мелодрама, фантастика, HDRip] [MP4, 960x] VO zamez Galfimbul 15732093401.47 GB 0 0 1487936885

14:48

24-Фев-17

Видео (Фильмы/Клипы) ·· [VIDEO] Русалка / The Mermaid / Mei ren yu (Стивен Чоу / Stephen Chow) [2016, комедия, мелодрама, фантастика, HDRip] [3GP, 320x] VO zamez Galfimbul 337126959322 MB 0 0 1487873114

21:05

23-Фев-17

Еще никто не оставлял запись к записи скачать торрент [VIDEO] Русалка The Mermaid . Будь первым!

!Обратная связь