James Franco | Heaven Sword and Dragon Sabre 2000 | Tayyab Ifzal

Скачать через торрент [MULT] Моана Moana бесплатно русская версия torrent активатор

Статистика раздачи
Размер:  1.5 GB   |    Зарегистрирован:  1 год 4 месяца   |    .torrent скачан:  62 раза   |   
Раздают:  1  
   
загрузка...
 
Автор Сообщение

Galfimbul

avatar Galfimbul


Моана / Moana

Год выпуска: 2016
Страна: США / Walt Disney Animation Studios
Жанр: мультфильм, мюзикл, фэнтези, комедия, приключения, семейный
Продолжительность: 01:47:43
Перевод: русский Профессиональный (полное дублирование) iTunes Russia
Оригинальная дорожка: Есть
Cубтитры: русские, английские
Режиссеры: Рон Клементс / Ron Clements, Дон Холл / Don Hall, Джон Маскер / John Musker, Крис Уильямс / Chris Williams
Роли озвучивали: Аулии Кравалхо, Дуэйн Джонсон, Рэйчел Хаус, Темуэра Моррисон, Джемейн Клемент, Николь Шерзингер, Алан Тьюдик, Оскар Кайтли, Трой Поламалу, Пуанани Кравальо и другие .
Описание: Бесстрашная Моана, дочь вождя маленького племени на острове в Тихом океане, больше всего на свете мечтает о приключениях и решает отправиться в опасное морское путешествие. Вместе с некогда могущественным полубогом Мауи им предстоит пересечь океан, сразиться со страшными чудовищами и разрушить древнее заклятие.
Релиз группы
Качество: BDRip / рип с BDRemux 1080p
Формат: MP4
Видео кодек: H.264
Аудио кодек: AAC
Видео: 960x402 AR:2.40 1740 kbps 23.976 fps
Аудио №1: [Russian] 2ch 48 kHz 128 kbps - [Dub] Профессиональный (полное дублирование) iTunes Russia
Аудио №2: [English] 2ch 48 kHz 128 kbps - Оригинал
avs [info]: 960x402p 1:1 @ 2997/125 fps (cfr)
x264 [info]: using SAR=1/1
x264 [info]: using cpu capabilities: MMX2 SSE2Fast SSSE3 SSE4.2 AVX FMA3 AVX2 LZCNT BMI2
x264 [info]: profile High, level 4.1

x264 [info]: frame I:1349 Avg QP:17.72 size: 61107
x264 [info]: frame P:41973 Avg QP:21.87 size: 16329
x264 [info]: frame B:110911 Avg QP:23.33 size: 5688
x264 [info]: consecutive B-frames: 5.1% 4.3% 15.7% 32.6% 17.0% 20.5% 2.1% 1.0% 0.7% 0.4% 0.5%
x264 [info]: mb I I16..4: 6.2% 66.7% 27.1%
x264 [info]: mb P I16..4: 1.5% 13.4% 3.3% P16..4: 30.1% 29.0% 9.7% 0.0% 0.0% skip:13.0%
x264 [info]: mb B I16..4: 0.3% 2.5% 0.7% B16..8: 28.3% 15.4% 3.1% direct: 3.8% skip:46.0% L0:39.7% L1:44.8% BI:15.5%
x264 [info]: 8x8 transform intra:72.3% inter:62.0%
x264 [info]: direct mvs spatial:94.2% temporal:5.8%
x264 [info]: coded y,uvDC,uvAC intra: 79.7% 84.0% 58.6% inter: 18.2% 17.3% 8.1%
x264 [info]: i16 v,h,dc,p: 14% 16% 6% 64%
x264 [info]: i8 v,h,dc,ddl,ddr,vr,hd,vl,hu: 10% 11% 5% 9% 12% 10% 15% 10% 17%
x264 [info]: i4 v,h,dc,ddl,ddr,vr,hd,vl,hu: 31% 7% 6% 6% 10% 9% 11% 7% 12%
x264 [info]: i8c dc,h,v,p: 31% 32% 17% 19%
x264 [info]: Weighted P-Frames: Y:10.9% UV:8.1%
x264 [info]: ref P L0: 56.3% 12.3% 13.1% 5.7% 3.9% 3.5% 2.8% 2.1% 0.3% 0.0%
x264 [info]: ref B L0: 83.2% 7.7% 4.1% 1.9% 1.5% 1.0% 0.5%
x264 [info]: ref B L1: 96.2% 3.8%
x264 [info]: kb/s:1739.40

encoded 154233 frames, 15.86 fps, 1739.40 kb/s
GeneralComplete name : D:\Torrents\Moana.BDRip.x264.960x.rip by Frost O.S.mp4Format : MPEG-4Format profile : Base MediaCodec ID : isom (isom/avc1/iso2)File size : 1.50 GiBDuration : 1 h 47 minOverall bit rate mode : VariableOverall bit rate : 1 999 kb/sMovie name : Moana BDRip x264 960x rip by Frost O SGenre : AnimationContentType : Short FilmEncoded date : UTC 2017-02-23 14:23:21Tagged date : UTC 2017-02-23 14:27:47Writing application : MkvToMp4 version: 0.224 (x64)Cover : YesComment : rip by Frost O.S

VideoID : 1Format : AVCFormat/Info : Advanced Video CodecFormat profile : [email protected] settings, CABAC : YesFormat settings, ReFrames : 8 framesCodec ID : avc1Codec ID/Info : Advanced Video CodingDuration : 1 h 47 minBit rate : 1 740 kb/sMaximum bit rate : 6 451 kb/sWidth : 960 pixelsHeight : 402 pixelsDisplay aspect ratio : 2.40:1Frame rate mode : ConstantFrame rate : 23.976 (24000/1001) FPSOriginal frame rate : 23.976 (23976/1000) FPSColor space : YUVChroma subsampling : 4:2:0Bit depth : 8 bitsScan type : ProgressiveBits/(Pixel*Frame) : 0.188Stream size : 1.30 GiB (87%)Writing library : x264 core 148 r2705 3f5ed56Encoding settings : cabac=1 / ref=8 / deblock=1:-1:-1 / analyse=0x3:0x113 / me=umh / subme=11 / psy=1 / psy_rd=0.75:0.00 / mixed_ref=1 / me_range=32 / chroma_me=1 / trellis=2 / 8x8dct=1 / cqm=0 / deadzone=21,11 / fast_pskip=0 / chroma_qp_offset=-2 / threads=6 / lookahead_threads=1 / sliced_threads=0 / nr=0 / decimate=0 / interlaced=0 / bluray_compat=0 / constrained_intra=0 / bframes=10 / b_pyramid=2 / b_adapt=2 / b_bias=0 / direct=3 / weightb=1 / open_gop=0 / weightp=2 / keyint=250 / keyint_min=23 / scenecut=40 / intra_refresh=0 / rc=2pass / mbtree=0 / bitrate=1740 / ratetol=1.0 / qcomp=0.65 / qpmin=0 / qpmax=69 / qpstep=4 / cplxblur=20.0 / qblur=0.5 / ip_ratio=1.40 / pb_ratio=1.30 / aq=3:0.80Language : EnglishEncoded date : UTC 2017-02-23 14:23:21Tagged date : UTC 2017-02-23 14:25:28Color range : LimitedColor primaries : BT.709Transfer characteristics : BT.709Matrix coefficients : BT.709

Audio #1ID : 2Format : AACFormat/Info : Advanced Audio CodecFormat profile : LCCodec ID : 40Duration : 1 h 47 minBit rate mode : VariableBit rate : 128 kb/sMaximum bit rate : 135 kb/sChannel(s) : 2 channelsChannel positions : Front: L RSampling rate : 48.0 kHzFrame rate : 46.875 FPS (1024 spf)Compression mode : LossyStream size : 98.6 MiB (6%)Title : Dub_ iTunes / Dub_ iTunesLanguage : RussianDefault : YesAlternate group : 1Encoded date : UTC 2017-02-23 14:24:15Tagged date : UTC 2017-02-23 14:25:28

Audio #2ID : 3Format : AACFormat/Info : Advanced Audio CodecFormat profile : LCCodec ID : 40Duration : 1 h 47 minBit rate mode : VariableBit rate : 128 kb/sMaximum bit rate : 135 kb/sChannel(s) : 2 channelsChannel positions : Front: L RSampling rate : 48.0 kHzFrame rate : 46.875 FPS (1024 spf)Compression mode : LossyStream size : 98.2 MiB (6%)Title : Original / OriginalLanguage : EnglishDefault : NoAlternate group : 1Encoded date : UTC 2017-02-23 14:25:05Tagged date : UTC 2017-02-23 14:25:28

Text #1ID : 4Format : Timed TextMuxing mode : sbtlCodec ID : tx3gDuration : 1 h 46 minBit rate mode : VariableBit rate : 82 b/sStream size : 64.2 KiB (0%)Language : RussianDefault : YesForced : NoAlternate group : 2Encoded date : UTC 2017-02-23 14:25:28Tagged date : UTC 2017-02-23 14:25:28

Text #2ID : 5Format : Timed TextMuxing mode : sbtlCodec ID : tx3gDuration : 1 h 46 minBit rate mode : VariableBit rate : 57 b/sStream size : 44.6 KiB (0%)Language : EnglishDefault : NoForced : NoAlternate group : 2Encoded date : UTC 2017-02-23 14:25:28Tagged date : UTC 2017-02-23 14:25:28

Text #3ID : 6Format : Timed TextMuxing mode : sbtlCodec ID : tx3gDuration : 1 h 46 minBit rate mode : VariableBit rate : 60 b/sStream size : 46.8 KiB (0%)Title : SDH / SDHLanguage : EnglishDefault : NoForced : NoAlternate group : 2Encoded date : UTC 2017-02-23 14:25:28Tagged date : UTC 2017-02-23 14:25:28


Трекер:  [ 23-Фев-2017 16:30 ]

  

Скачать .torrent

Размер .torrent файла 15 KB


Размер: 1.5 GB
Хэш (hash) релиза: 4be9c0bb4a76634bf69f4abd77fc67e78de166c3

Еще никто не оставлял запись к записи скачать торрент [MULT] Моана Moana . Будь первым!

!Обратная связь