Stephen Hawking - Geheimnisse des Universums | Last Week Tonight with John Oliver - Season 4 (2017) | Massacre à la tronçonneuse

Скачать через торрент [MULT] Моана Moana бесплатно русская версия torrent активатор

Статистика раздачи
Размер:  485 MB   |    Зарегистрирован:  1 год 4 месяца   |    .torrent скачан:  22 раза   |   
Раздают:  1  
   
загрузка...
 
Автор Сообщение

Galfimbul

avatar Galfimbul


Моана / Moana

Год выпуска: 2016
Страна: США / Walt Disney Animation Studios
Жанр: мультфильм, мюзикл, фэнтези, комедия, приключения, семейный
Продолжительность: 01:47:43
Перевод: русский Профессиональный (полное дублирование) iTunes Russia
Cубтитры: нет
Режиссеры: Рон Клементс / Ron Clements, Дон Холл / Don Hall, Джон Маскер / John Musker, Крис Уильямс / Chris Williams
Роли озвучивали: Аулии Кравалхо, Дуэйн Джонсон, Рэйчел Хаус, Темуэра Моррисон, Джемейн Клемент, Николь Шерзингер, Алан Тьюдик, Оскар Кайтли, Трой Поламалу, Пуанани Кравальо и другие .
Описание: Бесстрашная Моана, дочь вождя маленького племени на острове в Тихом океане, больше всего на свете мечтает о приключениях и решает отправиться в опасное морское путешествие. Вместе с некогда могущественным полубогом Мауи им предстоит пересечь океан, сразиться со страшными чудовищами и разрушить древнее заклятие.
Релиз группы
Качество: HDRip / рип с BDRip 720p
Формат: MP4
Видео кодек: XviD
Аудио кодек: AAC
Видео: 480x200 AR:2.40 494 kbps 23.976 fps
Аудио: [Russian] 2ch 48 kHz 128 kbps - [Dub] Профессиональный (полное дублирование) iTunes Russia
GeneralComplete name : D:\Torrents\Moana.HDRip.XviD.480x.rip by Frost O.S.mp4Format : MPEG-4Format profile : Base MediaCodec ID : isom (isom/iso2)File size : 485 MiBDuration : 1 h 47 minOverall bit rate mode : VariableOverall bit rate : 630 kb/sMovie name : Moana HDRip XviD 480x rip by Frost O SGenre : AnimationContentType : Short FilmEncoded date : UTC 2017-02-23 14:33:34Tagged date : UTC 2017-02-23 14:34:14Writing application : MkvToMp4 version: 0.224 (x64)Cover : YesComment : rip by Frost O.S

VideoID : 1Format : MPEG-4 VisualFormat profile : Advanced [email protected] settings, BVOP : YesFormat settings, QPel : NoFormat settings, GMC : No warppointsFormat settings, Matrix : CustomCodec ID : 20Duration : 1 h 47 minBit rate mode : VariableBit rate : 494 kb/sMaximum bit rate : 3 270 Mb/sWidth : 480 pixelsHeight : 200 pixelsDisplay aspect ratio : 2.40:1Frame rate mode : VariableFrame rate : 23.976 (23976/1000) FPSMinimum frame rate : 5.994 FPSMaximum frame rate : 23.976 FPSColor space : YUVChroma subsampling : 4:2:0Bit depth : 8 bitsScan type : ProgressiveCompression mode : LossyBits/(Pixel*Frame) : 0.215Stream size : 379 MiB (78%)Title : avi_GPAC0.5.2_DEV_rev248_g39d5978_masterWriting library : XviD 1.2.1 (UTC 2008-12-04)Language : EnglishTagged date : UTC 2017-02-23 14:33:50

AudioID : 2Format : AACFormat/Info : Advanced Audio CodecFormat profile : LCCodec ID : 40Duration : 1 h 47 minBit rate mode : VariableBit rate : 128 kb/sMaximum bit rate : 135 kb/sChannel(s) : 2 channelsChannel positions : Front: L RSampling rate : 48.0 kHzFrame rate : 46.875 FPS (1024 spf)Compression mode : LossyStream size : 98.6 MiB (20%)Title : Dub_ iTunes / Dub_ iTunesLanguage : RussianDefault : YesAlternate group : 1Encoded date : UTC 2017-02-23 14:33:41Tagged date : UTC 2017-02-23 14:33:50


Трекер:  [ 23-Фев-2017 16:30 ]

  

Скачать .torrent

Размер .torrent файла 19 KB


Размер: 485 MB
Хэш (hash) релиза: a2b7aa0bb4ae1b815235bc2659cfb5162e9eb638

Еще никто не оставлял запись к записи скачать торрент [MULT] Моана Moana . Будь первым!

!Обратная связь