Season 8 Episode 12 Friends in Deed | The Other Kingdom | Suchmaschinenoptimierung mit Google Webmaster Tools

Скачать через торрент [VIDEO] Трое в лодке, не считая собаки бесплатно русская версия torrent активатор

Статистика раздачи
Размер:  1.74 GB   |    Зарегистрирован:  1 год 4 месяца   |    .torrent скачан:  22 раза   |   
Раздают:  1  
   
загрузка...
 
Автор Сообщение

Galfimbul

avatar Galfimbul


Трое в лодке, не считая собаки (2 части)

Год выпуска: 1979
Страна: СССР
Жанр: мюзикл, комедия
Продолжительность: первая часть - 01:06:24 и вторая часть 01:06:24
Перевод: не требуется
Cубтитры: нет
Режиссер: Наум Бирман
В ролях: Андрей Миронов, Михаил Державин, Александр Ширвиндт, Лариса Голубкина, Алина Покровская, Ирина Мазуркевич, Зиновий Гердт, Изиль Заблудовский, Виктор Ильичёв, Кира Крейлис-Петрова, Анна Лисянская, Владимир Ляховицкий, Игорь Окрепилов, Татьяна Пельтцер, Юрий Катин-Ярцев, Григорий Шпигель, Николай Боярский, Ольга Волкова, Михаил Девяткин, Георгий Штиль, Лев Лемке, Ирина Смирнова (Гойер), Анатолий Рудаков, Вера Улик, Файме Юрно, Мария Белкина, Анатолий Попов, Борис Бирман, Роберт Городецкий .
Описание: По одноименной повести Джерома К. Джерома. Однажды трое приятелей-холостяков, лондонских жителей, решили сделаться ближе к природе и отправиться в лодочное путешествие по Темзе, прихватив с собой собачку Монморенси…
Покадровая цифровая реставрация изображения, ремастеринг звука и авторинг проведены объединением «Крупный план».
Релиз группы
Качество: BDRip / рип с Blu-ray 1080p
Формат: MP4
Видео кодек: H.264
Аудио кодек: AAC
Видео: 960x540 AR:16/9 1740 kbps 23.976 fps 1 часть
Аудио: 2ch 48 kHz 128 kbps 1 часть
Видео: 960x540 AR:16/9 1740 kbps 23.976 fps 2 часть
Аудио: 2ch 48 kHz 128 kbps 2 часть
<div class="sp-wrap">
<div class="sp-head folded">Logx264</div>
<div class="sp-body">avs [info]: 960x540p 1:1 @ 2997/125 fps (cfr)
x264 [info]: using SAR=1/1
x264 [info]: using cpu capabilities: MMX2 SSE2Fast SSSE3 SSE4.2 AVX FMA3 AVX2 LZCNT BMI2
x264 [info]: profile High, level 4.1

x264 [info]: frame I:511 Avg QP:19.22 size: 56212
x264 [info]: frame P:21828 Avg QP:22.64 size: 19355
x264 [info]: frame B:73191 Avg QP:24.63 size: 5678
x264 [info]: consecutive B-frames: 2.0% 2.8% 11.8% 20.8% 15.4% 44.9% 2.1% 0.3%
x264 [info]: mb I I16..4: 5.6% 73.1% 21.3%
x264 [info]: mb P I16..4: 0.4% 6.5% 1.3% P16..4: 36.1% 40.9% 12.4% 0.0% 0.0% skip: 2.3%
x264 [info]: mb B I16..4: 0.0% 0.6% 0.1% B16..8: 36.5% 21.2% 4.0% direct: 3.8% skip:33.8% L0:39.3% L1:49.5% BI:11.2%
x264 [info]: 8x8 transform intra:78.7% inter:64.2%
x264 [info]: direct mvs spatial:97.1% temporal:2.9%
x264 [info]: coded y,uvDC,uvAC intra: 90.3% 71.6% 37.0% inter: 20.2% 12.4% 3.0%
x264 [info]: i16 v,h,dc,p: 30% 17% 7% 47%
x264 [info]: i8 v,h,dc,ddl,ddr,vr,hd,vl,hu: 8% 8% 3% 9% 15% 14% 16% 12% 14%
x264 [info]: i4 v,h,dc,ddl,ddr,vr,hd,vl,hu: 10% 9% 4% 8% 16% 15% 16% 10% 13%
x264 [info]: i8c dc,h,v,p: 34% 30% 20% 16%
x264 [info]: Weighted P-Frames: Y:5.1% UV:2.0%
x264 [info]: ref P L0: 54.5% 13.9% 14.6% 4.5% 3.8% 2.7% 2.7% 1.5% 1.8% 0.1% 0.0%
x264 [info]: ref B L0: 88.9% 6.3% 2.2% 0.9% 0.6% 0.5% 0.3% 0.2%
x264 [info]: ref B L1: 97.2% 2.8%
x264 [info]: kb/s:1740.30

encoded 95530 frames, 12.55 fps, 1740.31 kb/s
GeneralComplete name : D:\Torrents\Трое в лодке, не считая собаки.1979.BDRip.x264.960x.(WideScreen)\Трое в лодке, не считая собаки (1 часть).1979.BDRip.x264.960x.rip by Frost O.S.mp4Format : MPEG-4Format profile : Base MediaCodec ID : isom (isom/avc1)File size : 891 MiBDuration : 1 h 6 minOverall bit rate mode : VariableOverall bit rate : 1 876 kb/sMovie name : Трое в лодке, не считая собаки (1 часть) 1979 BDRip x264 960x rip by Frost O SContentType : Short FilmEncoded date : UTC 2017-02-21 14:21:37Tagged date : UTC 2017-02-21 14:22:35Writing application : MkvToMp4 version: 0.224 (x64)Comment : rip by Frost O.S

VideoID : 1Format : AVCFormat/Info : Advanced Video CodecFormat profile : [email protected] settings, CABAC : YesFormat settings, ReFrames : 9 framesCodec ID : avc1Codec ID/Info : Advanced Video CodingDuration : 1 h 6 minBit rate : 1 740 kb/sMaximum bit rate : 4 552 kb/sWidth : 960 pixelsHeight : 540 pixelsDisplay aspect ratio : 16:9Frame rate mode : ConstantFrame rate : 23.976 (24000/1001) FPSOriginal frame rate : 23.976 (23976/1000) FPSColor space : YUVChroma subsampling : 4:2:0Bit depth : 8 bitsScan type : ProgressiveBits/(Pixel*Frame) : 0.140Stream size : 827 MiB (93%)Writing library : x264 core 148 r2705 3f5ed56Encoding settings : cabac=1 / ref=9 / deblock=1:-2:-1 / analyse=0x3:0x113 / me=umh / subme=11 / psy=1 / psy_rd=0.90:0.00 / mixed_ref=1 / me_range=32 / chroma_me=1 / trellis=2 / 8x8dct=1 / cqm=0 / deadzone=21,11 / fast_pskip=0 / chroma_qp_offset=-2 / threads=6 / lookahead_threads=1 / sliced_threads=0 / nr=0 / decimate=0 / interlaced=0 / bluray_compat=0 / constrained_intra=0 / bframes=7 / b_pyramid=2 / b_adapt=2 / b_bias=0 / direct=3 / weightb=1 / open_gop=0 / weightp=2 / keyint=250 / keyint_min=23 / scenecut=40 / intra_refresh=0 / rc=2pass / mbtree=0 / bitrate=1740 / ratetol=1.0 / qcomp=0.65 / qpmin=0 / qpmax=69 / qpstep=4 / cplxblur=20.0 / qblur=0.5 / ip_ratio=1.40 / pb_ratio=1.30 / aq=2:0.70Language : EnglishEncoded date : UTC 2017-02-21 14:21:37Tagged date : UTC 2017-02-21 14:21:58Color range : LimitedColor primaries : BT.709Transfer characteristics : BT.709Matrix coefficients : BT.709

AudioID : 2Format : AACFormat/Info : Advanced Audio CodecFormat profile : LCCodec ID : 40Duration : 1 h 6 minBit rate mode : VariableBit rate : 128 kb/sMaximum bit rate : 134 kb/sChannel(s) : 2 channelsChannel positions : Front: L RSampling rate : 48.0 kHzFrame rate : 46.875 FPS (1024 spf)Compression mode : LossyStream size : 60.8 MiB (7%)Language : RussianDefault : YesAlternate group : 1Encoded date : UTC 2017-02-21 14:21:50Tagged date : UTC 2017-02-21 14:21:58
</div>
</div>
<div class="sp-wrap">
<div class="sp-head folded">Logx264</div>
<div class="sp-body">avs [info]: 960x540p 1:1 @ 2997/125 fps (cfr)
x264 [info]: using SAR=1/1
x264 [info]: using cpu capabilities: MMX2 SSE2Fast SSSE3 SSE4.2 AVX FMA3 AVX2 LZCNT BMI2
x264 [info]: profile High, level 4.1

x264 [info]: frame I:559 Avg QP:19.50 size: 57643
x264 [info]: frame P:22615 Avg QP:22.93 size: 19120
x264 [info]: frame B:71832 Avg QP:24.89 size: 5528
x264 [info]: consecutive B-frames: 2.5% 3.8% 12.3% 23.1% 15.2% 40.6% 2.3% 0.2%
x264 [info]: mb I I16..4: 4.9% 71.9% 23.1%
x264 [info]: mb P I16..4: 0.5% 7.0% 1.3% P16..4: 36.0% 40.8% 12.1% 0.0% 0.0% skip: 2.3%
x264 [info]: mb B I16..4: 0.0% 0.7% 0.1% B16..8: 36.9% 21.2% 3.9% direct: 3.4% skip:33.6% L0:39.2% L1:50.4% BI:10.4%
x264 [info]: 8x8 transform intra:78.6% inter:63.2%
x264 [info]: direct mvs spatial:97.3% temporal:2.7%
x264 [info]: coded y,uvDC,uvAC intra: 90.6% 73.8% 35.1% inter: 19.9% 12.9% 2.8%
x264 [info]: i16 v,h,dc,p: 24% 16% 7% 52%
x264 [info]: i8 v,h,dc,ddl,ddr,vr,hd,vl,hu: 6% 8% 3% 10% 15% 14% 16% 12% 15%
x264 [info]: i4 v,h,dc,ddl,ddr,vr,hd,vl,hu: 9% 9% 3% 8% 15% 14% 16% 11% 15%
x264 [info]: i8c dc,h,v,p: 34% 30% 20% 16%
x264 [info]: Weighted P-Frames: Y:5.2% UV:2.3%
x264 [info]: ref P L0: 56.9% 14.9% 13.6% 4.2% 3.5% 2.5% 2.5% 1.7% 0.1% 0.0%
x264 [info]: ref B L0: 89.0% 6.3% 2.3% 1.0% 0.7% 0.5% 0.2%
x264 [info]: ref B L1: 97.1% 2.9%
x264 [info]: kb/s:1739.75

encoded 95006 frames, 12.78 fps, 1739.75 kb/s
GeneralComplete name : D:\Torrents\Трое в лодке, не считая собаки.1979.BDRip.x264.960x.(WideScreen)\Трое в лодке, не считая собаки (2 часть).1979.BDRip.x264.960x.rip by Frost O.S.mp4Format : MPEG-4Format profile : Base MediaCodec ID : isom (isom/avc1)File size : 886 MiBDuration : 1 h 6 minOverall bit rate mode : VariableOverall bit rate : 1 866 kb/sMovie name : Трое в лодке, не считая собаки (2 часть) 1979 BDRip x264 960x rip by Frost O SContentType : Short FilmEncoded date : UTC 2017-02-21 14:24:01Tagged date : UTC 2017-02-21 14:24:58Writing application : MkvToMp4 version: 0.224 (x64)Comment : rip by Frost O.S

VideoID : 1Format : AVCFormat/Info : Advanced Video CodecFormat profile : [email protected] settings, CABAC : YesFormat settings, ReFrames : 8 framesCodec ID : avc1Codec ID/Info : Advanced Video CodingDuration : 1 h 6 minBit rate : 1 740 kb/sMaximum bit rate : 4 882 kb/sWidth : 960 pixelsHeight : 540 pixelsDisplay aspect ratio : 16:9Frame rate mode : ConstantFrame rate : 23.976 (24000/1001) FPSOriginal frame rate : 23.976 (23976/1000) FPSColor space : YUVChroma subsampling : 4:2:0Bit depth : 8 bitsScan type : ProgressiveBits/(Pixel*Frame) : 0.140Stream size : 822 MiB (93%)Writing library : x264 core 148 r2705 3f5ed56Encoding settings : cabac=1 / ref=8 / deblock=1:-1:-1 / analyse=0x3:0x113 / me=umh / subme=11 / psy=1 / psy_rd=0.90:0.00 / mixed_ref=1 / me_range=32 / chroma_me=1 / trellis=2 / 8x8dct=1 / cqm=0 / deadzone=21,11 / fast_pskip=0 / chroma_qp_offset=-2 / threads=6 / lookahead_threads=1 / sliced_threads=0 / nr=0 / decimate=0 / interlaced=0 / bluray_compat=0 / constrained_intra=0 / bframes=7 / b_pyramid=2 / b_adapt=2 / b_bias=0 / direct=3 / weightb=1 / open_gop=0 / weightp=2 / keyint=250 / keyint_min=23 / scenecut=40 / intra_refresh=0 / rc=2pass / mbtree=0 / bitrate=1740 / ratetol=1.0 / qcomp=0.65 / qpmin=0 / qpmax=69 / qpstep=4 / cplxblur=20.0 / qblur=0.5 / ip_ratio=1.40 / pb_ratio=1.30 / aq=2:0.80Language : EnglishEncoded date : UTC 2017-02-21 14:24:01Tagged date : UTC 2017-02-21 14:24:17Color range : LimitedColor primaries : BT.709Transfer characteristics : BT.709Matrix coefficients : BT.709

AudioID : 2Format : AACFormat/Info : Advanced Audio CodecFormat profile : LCCodec ID : 40Duration : 1 h 6 minBit rate mode : VariableBit rate : 128 kb/sMaximum bit rate : 135 kb/sChannel(s) : 2 channelsChannel positions : Front: L RSampling rate : 48.0 kHzFrame rate : 46.875 FPS (1024 spf)Compression mode : LossyStream size : 60.8 MiB (7%)Language : RussianDefault : YesAlternate group : 1Encoded date : UTC 2017-02-21 14:24:16Tagged date : UTC 2017-02-21 14:24:17
</div>
</div>

Трекер:  [ 21-Фев-2017 17:00 ]

  

Скачать .torrent

Размер .torrent файла 18 KB


Размер: 1.74 GB
Хэш (hash) релиза: 5230f25f22afa006d0ef7b9642b8a349a5238835

Торренты, похожие на [VIDEO] Трое в лодке, не считая собаки скачать торрент

Форум Название Автор Размер S L Добавлен
Видео (Фильмы/Клипы) ·· [VIDEO] Трое в лодке, не считая собаки (Наум Бирман) [1979, мюзикл, комедия, HDRip] [MP4, 480x] [Fullscreen] Galfimbul 637729229608 MB 0 0 1488393592

21:39

1-Мар-17

Видео (Фильмы/Клипы) ·· [VIDEO] Трое в лодке, не считая собаки (Наум Бирман) [1979, мюзикл, комедия, BDRip] [MP4, 960x] [Fullscreen] Galfimbul 17494395531.63 GB 0 0 1487689803

18:10

21-Фев-17

Еще никто не оставлял запись к записи скачать торрент [VIDEO] Трое в лодке, не считая собаки . Будь первым!

!Обратная связь