Подробнее
1x47 Yu-Gi-Oh! Vrains

Скачать через торрент [VIDEO] Трое в лодке, не считая собаки бесплатно русская версия torrent активатор

Статистика раздачи
Размер:  1.63 GB   |    Зарегистрирован:  1 год 1 месяц   |    .torrent скачан:  21 раз   |   
Раздают:  1  
   
загрузка...
 
Автор Сообщение

Galfimbul

avatar Galfimbul


Трое в лодке, не считая собаки (2 части)

Год выпуска: 1979
Страна: СССР
Жанр: мюзикл, комедия
Продолжительность: первая часть - 01:06:24 и вторая часть 01:06:24
Перевод: не требуется
Cубтитры: нет
Режиссер: Наум Бирман
В ролях: Андрей Миронов, Михаил Державин, Александр Ширвиндт, Лариса Голубкина, Алина Покровская, Ирина Мазуркевич, Зиновий Гердт, Изиль Заблудовский, Виктор Ильичёв, Кира Крейлис-Петрова, Анна Лисянская, Владимир Ляховицкий, Игорь Окрепилов, Татьяна Пельтцер, Юрий Катин-Ярцев, Григорий Шпигель, Николай Боярский, Ольга Волкова, Михаил Девяткин, Георгий Штиль, Лев Лемке, Ирина Смирнова (Гойер), Анатолий Рудаков, Вера Улик, Файме Юрно, Мария Белкина, Анатолий Попов, Борис Бирман, Роберт Городецкий .
Описание: По одноименной повести Джерома К. Джерома. Однажды трое приятелей-холостяков, лондонских жителей, решили сделаться ближе к природе и отправиться в лодочное путешествие по Темзе, прихватив с собой собачку Монморенси…
Покадровая цифровая реставрация изображения, ремастеринг звука и авторинг проведены объединением «Крупный план».
Релиз группы
Качество: BDRip / рип с Blu-ray 1080p
Формат: MP4
Видео кодек: H.264
Аудио кодек: AAC
Видео: 736x536 AR:1.373 1600 kbps 23.976 fps 1 часть
Аудио: 2ch 48 kHz 128 kbps 1 часть
Видео: 736x536 AR:1.373 1650 kbps 23.976 fps 2 часть
Аудио: 2ch 48 kHz 128 kbps 2 часть
<div class="sp-wrap">
<div class="sp-head folded">Logx264</div>
<div class="sp-body">avs [info]: 736x536p 1:1 @ 2997/125 fps (cfr)
x264 [info]: using SAR=1/1
x264 [info]: using cpu capabilities: MMX2 SSE2Fast SSSE3 SSE4.2 AVX FMA3 AVX2 LZCNT BMI2
x264 [info]: profile High, level 4.1

x264 [info]: frame I:517 Avg QP:18.25 size: 53674
x264 [info]: frame P:22228 Avg QP:21.72 size: 17959
x264 [info]: frame B:72785 Avg QP:23.72 size: 5086
x264 [info]: consecutive B-frames: 1.8% 2.9% 11.2% 27.5% 17.2% 37.0% 2.1% 0.3%
x264 [info]: mb I I16..4: 3.6% 73.5% 22.8%
x264 [info]: mb P I16..4: 0.3% 6.5% 1.5% P16..4: 34.0% 40.9% 14.8% 0.0% 0.0% skip: 2.0%
x264 [info]: mb B I16..4: 0.0% 0.6% 0.1% B16..8: 35.8% 22.3% 4.3% direct: 4.2% skip:32.7% L0:37.0% L1:47.5% BI:15.5%
x264 [info]: 8x8 transform intra:77.9% inter:61.2%
x264 [info]: direct mvs spatial:96.1% temporal:3.9%
x264 [info]: coded y,uvDC,uvAC intra: 92.3% 72.7% 42.0% inter: 22.5% 13.0% 3.9%
x264 [info]: i16 v,h,dc,p: 32% 16% 5% 47%
x264 [info]: i8 v,h,dc,ddl,ddr,vr,hd,vl,hu: 12% 9% 4% 9% 14% 13% 15% 11% 14%
x264 [info]: i4 v,h,dc,ddl,ddr,vr,hd,vl,hu: 12% 8% 3% 8% 15% 15% 15% 10% 13%
x264 [info]: i8c dc,h,v,p: 32% 31% 21% 16%
x264 [info]: Weighted P-Frames: Y:4.4% UV:1.7%
x264 [info]: ref P L0: 53.6% 14.7% 14.3% 4.6% 3.8% 2.7% 2.7% 1.6% 1.9% 0.1% 0.0%
x264 [info]: ref B L0: 87.8% 6.8% 2.4% 1.1% 0.7% 0.6% 0.4% 0.2%
x264 [info]: ref B L1: 96.7% 3.3%
x264 [info]: kb/s:1600.50

encoded 95530 frames, 14.65 fps, 1600.50 kb/s
GeneralComplete name : D:\Torrents\Трое в лодке, не считая собаки.1979.BDRip.x264.960x.(FullScreen)\Трое в лодке, не считая собаки (1 часть).1979.BDRip.x264.960x.rip by Frost O.S.mp4Format : MPEG-4Format profile : Base MediaCodec ID : isom (isom/avc1)File size : 825 MiBDuration : 1 h 6 minOverall bit rate mode : VariableOverall bit rate : 1 736 kb/sMovie name : Трое в лодке, не считая собаки (1 часть) 1979 BDRip x264 960x rip by Frost O SContentType : Short FilmEncoded date : UTC 2017-02-21 14:28:26Tagged date : UTC 2017-02-21 14:29:16Writing application : MkvToMp4 version: 0.224 (x64)Comment : rip by Frost O.S

VideoID : 1Format : AVCFormat/Info : Advanced Video CodecFormat profile : [email protected] settings, CABAC : YesFormat settings, ReFrames : 9 framesCodec ID : avc1Codec ID/Info : Advanced Video CodingDuration : 1 h 6 minBit rate : 1 600 kb/sMaximum bit rate : 4 057 kb/sWidth : 736 pixelsHeight : 536 pixelsDisplay aspect ratio : 1.373Frame rate mode : ConstantFrame rate : 23.976 (24000/1001) FPSOriginal frame rate : 23.976 (23976/1000) FPSColor space : YUVChroma subsampling : 4:2:0Bit depth : 8 bitsScan type : ProgressiveBits/(Pixel*Frame) : 0.169Stream size : 760 MiB (92%)Writing library : x264 core 148 r2705 3f5ed56Encoding settings : cabac=1 / ref=9 / deblock=1:-2:-2 / analyse=0x3:0x113 / me=umh / subme=11 / psy=1 / psy_rd=0.90:0.00 / mixed_ref=1 / me_range=32 / chroma_me=1 / trellis=2 / 8x8dct=1 / cqm=0 / deadzone=21,11 / fast_pskip=0 / chroma_qp_offset=-2 / threads=6 / lookahead_threads=1 / sliced_threads=0 / nr=0 / decimate=0 / interlaced=0 / bluray_compat=0 / constrained_intra=0 / bframes=7 / b_pyramid=2 / b_adapt=2 / b_bias=0 / direct=3 / weightb=1 / open_gop=0 / weightp=2 / keyint=250 / keyint_min=23 / scenecut=40 / intra_refresh=0 / rc=2pass / mbtree=0 / bitrate=1600 / ratetol=1.0 / qcomp=0.65 / qpmin=0 / qpmax=69 / qpstep=4 / cplxblur=20.0 / qblur=0.5 / ip_ratio=1.40 / pb_ratio=1.30 / aq=2:0.90Language : EnglishEncoded date : UTC 2017-02-21 14:28:26Tagged date : UTC 2017-02-21 14:28:41Color range : LimitedColor primaries : BT.709Transfer characteristics : BT.709Matrix coefficients : BT.709

AudioID : 2Format : AACFormat/Info : Advanced Audio CodecFormat profile : LCCodec ID : 40Duration : 1 h 6 minBit rate mode : VariableBit rate : 128 kb/sMaximum bit rate : 134 kb/sChannel(s) : 2 channelsChannel positions : Front: L RSampling rate : 48.0 kHzFrame rate : 46.875 FPS (1024 spf)Compression mode : LossyStream size : 60.8 MiB (7%)Language : RussianDefault : YesAlternate group : 1Encoded date : UTC 2017-02-21 14:28:39Tagged date : UTC 2017-02-21 14:28:41
</div>
</div>
<div class="sp-wrap">
<div class="sp-head folded">Logx264</div>
<div class="sp-body">avs [info]: 736x536p 1:1 @ 2997/125 fps (cfr)
x264 [info]: using SAR=1/1
x264 [info]: using cpu capabilities: MMX2 SSE2Fast SSSE3 SSE4.2 AVX FMA3 AVX2 LZCNT BMI2
x264 [info]: profile High, level 4.1

x264 [info]: frame I:567 Avg QP:18.45 size: 55731
x264 [info]: frame P:22837 Avg QP:22.02 size: 18178
x264 [info]: frame B:71602 Avg QP:23.88 size: 5174
x264 [info]: consecutive B-frames: 2.3% 3.5% 11.5% 29.2% 17.5% 33.3% 2.4% 0.3%
x264 [info]: mb I I16..4: 3.1% 73.9% 22.9%
x264 [info]: mb P I16..4: 0.3% 7.0% 1.6% P16..4: 33.1% 40.8% 15.2% 0.0% 0.0% skip: 2.0%
x264 [info]: mb B I16..4: 0.0% 0.7% 0.1% B16..8: 35.7% 22.7% 4.5% direct: 3.9% skip:32.4% L0:36.6% L1:47.6% BI:15.8%
x264 [info]: 8x8 transform intra:78.3% inter:60.7%
x264 [info]: direct mvs spatial:96.7% temporal:3.3%
x264 [info]: coded y,uvDC,uvAC intra: 92.7% 75.7% 41.8% inter: 22.7% 13.7% 3.9%
x264 [info]: i16 v,h,dc,p: 26% 14% 6% 54%
x264 [info]: i8 v,h,dc,ddl,ddr,vr,hd,vl,hu: 11% 10% 4% 9% 14% 12% 15% 11% 14%
x264 [info]: i4 v,h,dc,ddl,ddr,vr,hd,vl,hu: 11% 9% 3% 8% 15% 14% 15% 11% 14%
x264 [info]: i8c dc,h,v,p: 32% 31% 20% 17%
x264 [info]: Weighted P-Frames: Y:4.7% UV:2.1%
x264 [info]: ref P L0: 55.4% 15.8% 14.3% 4.6% 3.9% 2.8% 3.1% 0.1% 0.0%
x264 [info]: ref B L0: 87.7% 7.3% 2.8% 1.2% 0.7% 0.4%
x264 [info]: ref B L1: 96.6% 3.4%
x264 [info]: kb/s:1649.84

encoded 95006 frames, 15.99 fps, 1649.84 kb/s
GeneralComplete name : D:\Torrents\Трое в лодке, не считая собаки.1979.BDRip.x264.960x.(FullScreen)\Трое в лодке, не считая собаки (2 часть).1979.BDRip.x264.960x.rip by Frost O.S.mp4Format : MPEG-4Format profile : Base MediaCodec ID : isom (isom/avc1)File size : 844 MiBDuration : 1 h 6 minOverall bit rate mode : VariableOverall bit rate : 1 777 kb/sMovie name : Трое в лодке, не считая собаки (2 часть) 1979 BDRip x264 960x rip by Frost O SContentType : Short FilmEncoded date : UTC 2017-02-21 14:30:30Tagged date : UTC 2017-02-21 14:31:26Writing application : MkvToMp4 version: 0.224 (x64)Comment : rip by Frost O.S

VideoID : 1Format : AVCFormat/Info : Advanced Video CodecFormat profile : [email protected] settings, CABAC : YesFormat settings, ReFrames : 7 framesCodec ID : avc1Codec ID/Info : Advanced Video CodingDuration : 1 h 6 minBit rate : 1 650 kb/sMaximum bit rate : 5 128 kb/sWidth : 736 pixelsHeight : 536 pixelsDisplay aspect ratio : 1.373Frame rate mode : ConstantFrame rate : 23.976 (24000/1001) FPSOriginal frame rate : 23.976 (23976/1000) FPSColor space : YUVChroma subsampling : 4:2:0Bit depth : 8 bitsScan type : ProgressiveBits/(Pixel*Frame) : 0.174Stream size : 779 MiB (92%)Writing library : x264 core 148 r2705 3f5ed56Encoding settings : cabac=1 / ref=7 / deblock=1:-2:-2 / analyse=0x3:0x113 / me=umh / subme=11 / psy=1 / psy_rd=0.90:0.00 / mixed_ref=1 / me_range=32 / chroma_me=1 / trellis=2 / 8x8dct=1 / cqm=0 / deadzone=21,11 / fast_pskip=0 / chroma_qp_offset=-2 / threads=6 / lookahead_threads=1 / sliced_threads=0 / nr=0 / decimate=0 / interlaced=0 / bluray_compat=0 / constrained_intra=0 / bframes=7 / b_pyramid=2 / b_adapt=2 / b_bias=0 / direct=3 / weightb=1 / open_gop=0 / weightp=2 / keyint=250 / keyint_min=23 / scenecut=40 / intra_refresh=0 / rc=2pass / mbtree=0 / bitrate=1650 / ratetol=1.0 / qcomp=0.65 / qpmin=0 / qpmax=69 / qpstep=4 / cplxblur=20.0 / qblur=0.5 / ip_ratio=1.40 / pb_ratio=1.30 / aq=2:0.90Language : EnglishEncoded date : UTC 2017-02-21 14:30:30Tagged date : UTC 2017-02-21 14:30:47Color range : LimitedColor primaries : BT.709Transfer characteristics : BT.709Matrix coefficients : BT.709

AudioID : 2Format : AACFormat/Info : Advanced Audio CodecFormat profile : LCCodec ID : 40Duration : 1 h 6 minBit rate mode : VariableBit rate : 128 kb/sMaximum bit rate : 135 kb/sChannel(s) : 2 channelsChannel positions : Front: L RSampling rate : 48.0 kHzFrame rate : 46.875 FPS (1024 spf)Compression mode : LossyStream size : 60.8 MiB (7%)Language : RussianDefault : YesAlternate group : 1Encoded date : UTC 2017-02-21 14:30:46Tagged date : UTC 2017-02-21 14:30:47
</div>
</div>

Трекер:  [ 21-Фев-2017 17:00 ]

  

Скачать .torrent

Размер .torrent файла 17 KB


Размер: 1.63 GB
Хэш (hash) релиза: e94f37c248a17487304d3a744f613524d3b24b5e

Торренты, похожие на [VIDEO] Трое в лодке, не считая собаки скачать торрент

Форум Название Автор Размер S L Добавлен
Видео (Фильмы/Клипы) ·· [VIDEO] Трое в лодке, не считая собаки (Наум Бирман) [1979, мюзикл, комедия, HDRip] [MP4, 480x] [Fullscreen] Galfimbul 637729229608 MB 0 0 1488393592

21:39

1-Мар-17

Видео (Фильмы/Клипы) ·· [VIDEO] Трое в лодке, не считая собаки (Наум Бирман) [1979, мюзикл, комедия, BDRip] [MP4, 960x] [Widescreen] Galfimbul 18635330061.74 GB 0 0 1487689811

18:10

21-Фев-17

Еще никто не оставлял запись к записи скачать торрент [VIDEO] Трое в лодке, не считая собаки . Будь первым!

!Обратная связь