Comments: 0
Damnation

Скачать через торрент [VIDEO] Новая эра Z The Girl with All the Gifts бесплатно русская версия torrent активатор

Статистика раздачи
Размер:  2.14 GB   |    Зарегистрирован:  1 год 1 месяц   |    .torrent скачан:  27 раз   |   
Раздают:  1  
   
загрузка...
 
Автор Сообщение

Galfimbul

avatar Galfimbul


Новая эра Z / The Girl with All the Gifts
«Умные и опасные: спасение или приговор»
Премьера: 3 августа 2016
Оригинальное название: The Girl with All the Gifts
Страна: США, Великобритания
Жанр: ужасы, триллер, драма
Возраст: 16+

Режиссер: Колм МакКарти / Colm McCarthy

В ролях: Джемма Артертон, Гленн Клоуз, Пэдди Консидайн, Анамария Маринка, Доминик Типпер, Сенниа Нануа, Лобна Фьютерс, Дэниэл Иган, Фисайо Акинаде, Энтони Уэльс

Описание: Война миров не закончилась. Планету поразил страшный вирус. На людей стали нападать инфицированные особи, поставив человечество на грань исчезновения. Единственная надежда — второе поколение зараженных, опасных, но обладающих феноменальным, более высоким, чем у людей, интеллектом. Они — ключ к созданию спасительной вакцины. Поэтому их держат в специальном бункере, оберегая от контактов с внешним миром. Но однажды ситуация выходит из-под контроля.

Продолжительность: 01:50:55
Перевод: Дублированный [Лицензия]
Оригинальная дорожка: нет

Автор рипа:

Качество видео: BDRip Исходник: Blu-Ray Remux (1080p) Формат: mp4
Видео кодек: MPEG-4 AVC Аудио кодек: AAC
Видео: 1280x638 (2.006) at 23.976 fps, AVC at 2 632 kbps avg, 0.134 bit/pixel
Аудио №1 Rus: 48.0 KHz, AAC, 2 ch, 128.0 Kbps
Субтитры: нет
Навигация по главам: есть
Размер: 2.14 GiB
avs [info]: 1280x638p 1:1 @ 24000/1001 fps (cfr)
x264 [info]: using SAR=1/1
x264 [info]: using cpu capabilities: MMX2 SSE2Fast SSSE3 Cache64
x264 [info]: profile High, level 4.1
x264 [info]: frame I:1126 Avg QP:14.02 size:111523
x264 [info]: frame P:30513 Avg QP:17.42 size: 31915
x264 [info]: frame B:127933 Avg QP:19.01 size: 8524
x264 [info]: consecutive B-frames: 1.7% 1.6% 4.4% 9.2% 15.9% 44.6% 11.3% 6.6% 1.6% 2.2% 0.9%
x264 [info]: mb I I16..4: 9.6% 74.4% 15.9%
x264 [info]: mb P I16..4: 1.4% 6.6% 0.8% P16..4: 46.4% 23.6% 15.8% 0.0% 0.0% skip: 5.2%
x264 [info]: mb B I16..4: 0.0% 0.4% 0.1% B16..8: 45.7% 7.5% 1.7% direct: 3.7% skip:40.9% L0:44.1% L1:50.5% BI: 5.4%
x264 [info]: 8x8 transform intra:74.8% inter:63.4%
x264 [info]: coded y,uvDC,uvAC intra: 82.2% 84.9% 59.4% inter: 19.0% 20.3% 2.1%
x264 [info]: i16 v,h,dc,p: 22% 13% 7% 58%
x264 [info]: i8 v,h,dc,ddl,ddr,vr,hd,vl,hu: 9% 7% 4% 10% 16% 15% 14% 12% 12%
x264 [info]: i4 v,h,dc,ddl,ddr,vr,hd,vl,hu: 8% 5% 3% 12% 17% 15% 14% 12% 13%
x264 [info]: i8c dc,h,v,p: 40% 22% 19% 19%
x264 [info]: Weighted P-Frames: Y:4.0% UV:2.3%
x264 [info]: ref P L0: 48.6% 9.0% 17.3% 6.8% 5.3% 4.0% 3.4% 1.9% 1.7% 1.7% 0.2% 0.0%
x264 [info]: ref B L0: 73.2% 12.0% 6.0% 2.9% 2.1% 1.7% 1.3% 0.6% 0.2%
x264 [info]: ref B L1: 91.7% 8.3%
x264 [info]: kb/s:2632.22
encoded 159572 frames, 1.50 fps, 2632.22 kb/s
GeneralFormat : MPEG-4Format profile : Base MediaCodec ID : isom (isom)File size : 2.14 GiBDuration : 1 h 50 minOverall bit rate mode : VariableOverall bit rate : 2 768 kb/sMovie name : Новая эра Z | KinoGadgetPerformer : Колм МакКартиDirector : Колм МакКартиActor : Джемма Артертон / Гленн Клоуз / Пэдди Консидайн / Анамария Маринка / Доминик Типпер / Сенниа Нануа / Лобна Фьютерс / Дэниэл Иган / Фисайо Акинаде / Энтони УэльсScreenplay by : Майк КэриProducer : Камилль Гатин / Энгус Ламонт / Уилл КларкGenre : Drama, Horror, ThrillerContentType : Short FilmRecorded date : 2016Encoded date : UTC 2017-02-21 06:19:52Tagged date : UTC 2017-02-21 06:30:42Cover : YesLongDescription : Война миров не закончилась. Планету поразил страшный вирус. На людей стали нападать инфицированные особи, поставив человечество на грань исчезновения. Единственная надежда — второе поколение зараженных, опасных, но обладающих феноменальным, более высоким, чем у людей, интеллектом. Они — ключ к созданию спасительной вакцины. Поэтому их держат в специальном бункере, оберегая от контактов с внешним миром. Но однажды ситуация выходит из-под контроля.HDVideo : Yes

VideoID : 1Format : AVCFormat/Info : Advanced Video CodecFormat profile : [email protected] settings, CABAC : YesFormat settings, ReFrames : 10 framesCodec ID : avc1Codec ID/Info : Advanced Video CodingDuration : 1 h 50 minBit rate : 2 632 kb/sMaximum bit rate : 15.6 Mb/sWidth : 1 280 pixelsHeight : 638 pixelsDisplay aspect ratio : 2.006Frame rate mode : ConstantFrame rate : 23.976 (24000/1001) FPSColor space : YUVChroma subsampling : 4:2:0Bit depth : 8 bitsScan type : ProgressiveBits/(Pixel*Frame) : 0.134Stream size : 2.04 GiB (95%)Writing library : x264 core 148 r2638 7599210Encoding settings : cabac=1 / ref=10 / deblock=1:-2:-1 / analyse=0x3:0x113 / me=umh / subme=9 / psy=1 / psy_rd=1.00:0.00 / mixed_ref=1 / me_range=32 / chroma_me=1 / trellis=2 / 8x8dct=1 / cqm=0 / deadzone=21,11 / fast_pskip=0 / chroma_qp_offset=-2 / threads=3 / lookahead_threads=1 / sliced_threads=0 / nr=0 / decimate=1 / interlaced=0 / bluray_compat=0 / constrained_intra=0 / bframes=10 / b_pyramid=2 / b_adapt=2 / b_bias=0 / direct=1 / weightb=1 / open_gop=0 / weightp=2 / keyint=250 / keyint_min=25 / scenecut=40 / intra_refresh=0 / rc_lookahead=60 / rc=crf / mbtree=1 / crf=18.0 / qcomp=0.60 / qpmin=0 / qpmax=69 / qpstep=4 / vbv_maxrate=62500 / vbv_bufsize=78125 / crf_max=0.0 / nal_hrd=none / filler=0 / ip_ratio=1.40 / aq=1:1.00Encoded date : UTC 2017-02-19 19:08:45Tagged date : UTC 2017-02-21 06:20:32

AudioID : 2Format : AACFormat/Info : Advanced Audio CodecFormat profile : LCCodec ID : 40Duration : 1 h 50 minBit rate mode : VariableBit rate : 128 kb/sMaximum bit rate : 135 kb/sChannel(s) : 2 channelsChannel positions : Front: L RSampling rate : 48.0 kHzFrame rate : 46.875 FPS (1024 spf)Compression mode : LossyStream size : 102 MiB (5%)Title : Dub [License]Language : RussianEncoded date : UTC 2017-02-19 19:13:01Tagged date : UTC 2017-02-21 06:20:32

Menu00:00:00.000 : 00:00:00.00000:09:22.312 : 00:09:22.31200:17:59.537 : 00:17:59.53700:31:09.826 : 00:31:09.82600:41:11.636 : 00:41:11.63600:48:34.453 : 00:48:34.45300:58:38.807 : 00:58:38.80701:07:45.561 : 01:07:45.56101:18:03.137 : 01:18:03.13701:25:42.679 : 01:25:42.67901:36:59.772 : 01:36:59.77201:45:52.930 : 01:45:52.930


Трекер:  [ 21-Фев-2017 09:00 ]

  

Скачать .torrent

Размер .torrent файла 11 KB


Размер: 2.14 GB
Хэш (hash) релиза: e8cf2e4e5d2137fa6872bddf254cd3613dbbe057

Еще никто не оставлял запись к записи скачать торрент [VIDEO] Новая эра Z The Girl with All the Gifts . Будь первым!

!Обратная связь