Nero Lite-Micro v12.0. | FileViewPro Gold Edition 1 3 2 20 Pre Cracked | Rebel in the Rye 2017

Скачать через торрент [VIDEO] Конан-варвар Conan the Barbarian бесплатно русская версия torrent активатор

Статистика раздачи
Размер:  508 MB   |    Зарегистрирован:  1 год 4 месяца   |    .torrent скачан:  35 раз   |   
Раздают:  1  
   
загрузка...
 
Автор Сообщение

Galfimbul

avatar Galfimbul


Конан-варвар / Conan the Barbarian

Год выпуска: 2011
Страна: США / Nu Image Films, Millennium Films, Paradox Entertainment
Жанр: фэнтези, боевик, приключения
Продолжительность: 01:52:42
Перевод: Русский Профессиональный (полное дублирование)
Cубтитры: нет
Режиссер: Маркус Ниспел / Marcus Nispel
В ролях: Джейсон Момоа (Conan), Рон Перлман (Corin), Стивен Лэнг (Khalar Zym), Рейчел Николс (Tamara), Роуз МакГоун (Marique), Боб Сапп (Ukafa), Лео Ховард (Young Conan), Стив О’Доннелл (Lucius), Нонсо Анози (Artus), Раад Рави (Fassir), Лайла Руасс (Fialla), Саид Тагмауи (Ela-Shan) и другие .
Описание: Природа наделила его силой. Гибель отца сделала его свирепым. Великий киммерийский воин Конан отправляется в дальнее странствие, чтобы совершить отмщение за кровь своего рода. Но поиски, которые начинаются как личная вендетта, вскоре оборачиваются эпической схваткой со сверхъестественными силами, поработившими народы великой Хайбории. Киммерийский воин — последняя надежда на спасение…
Релиз группы
Качество: HDRip / рип с BDRip 720p (HDCLUB)
Формат: MP4
Видео кодек: XviD
Аудио кодек: AAC
Видео: 480x200 AR:2.40 494 kbps 23.976 fps
Аудио: [Russian] 2ch 48 kHz 128 kbps - Профессиональный (полное дублирование)
GeneralComplete name : D:\Torrents\Conan the Barbarian.2011.HDRip.XviD.480x.rip by Frost O.S.mp4Format : MPEG-4Format profile : Base MediaCodec ID : isom (isom/iso2)File size : 508 MiBDuration : 1 h 52 minOverall bit rate mode : VariableOverall bit rate : 630 kb/sMovie name : Conan the Barbarian 2011 HDRip XviD 480x rip by Frost O SGenre : ActionContentType : Short FilmEncoded date : UTC 2017-02-19 20:59:39Tagged date : UTC 2017-02-19 21:00:07Writing application : MkvToMp4 version: 0.224 (x64)Cover : YesComment : rip by Frost O.S

VideoID : 1Format : MPEG-4 VisualFormat profile : Advanced [email protected] settings, BVOP : YesFormat settings, QPel : NoFormat settings, GMC : No warppointsFormat settings, Matrix : CustomCodec ID : 20Duration : 1 h 52 minBit rate mode : VariableBit rate : 494 kb/sMaximum bit rate : 2 657 kb/sWidth : 480 pixelsHeight : 200 pixelsDisplay aspect ratio : 2.40:1Frame rate mode : ConstantFrame rate : 23.976 (24000/1001) FPSOriginal frame rate : 23.976 (23976/1000) FPSColor space : YUVChroma subsampling : 4:2:0Bit depth : 8 bitsScan type : ProgressiveCompression mode : LossyBits/(Pixel*Frame) : 0.215Stream size : 399 MiB (78%)Title : avi_GPAC0.5.2_DEV_rev248_g39d5978_masterWriting library : XviD 1.2.1 (UTC 2008-12-04)Language : EnglishTagged date : UTC 2017-02-19 20:59:47

AudioID : 2Format : AACFormat/Info : Advanced Audio CodecFormat profile : LCCodec ID : 40Duration : 1 h 52 minBit rate mode : VariableBit rate : 128 kb/sMaximum bit rate : 135 kb/sChannel(s) : 2 channelsChannel positions : Front: L RSampling rate : 48.0 kHzFrame rate : 46.875 FPS (1024 spf)Compression mode : LossyStream size : 103 MiB (20%)Title : Dub / DubLanguage : RussianDefault : YesAlternate group : 1Encoded date : UTC 2017-02-19 20:59:45Tagged date : UTC 2017-02-19 20:59:47


Трекер:  [ 19-Фев-2017 23:30 ]

  

Скачать .torrent

Размер .torrent файла 20 KB


Размер: 508 MB
Хэш (hash) релиза: ac62715ca0b53e66e2b631f14b96886f9472fbb7

Торренты, похожие на [VIDEO] Конан-варвар Conan the Barbarian скачать торрент

Форум Название Автор Размер S L Добавлен
Видео (Фильмы/Клипы) ·· [VIDEO] Конан-варвар / Conan the Barbarian (Маркус Ниспел / Marcus Nispel) [2011, фэнтези, боевик, приключения, BDRip] [MP4, 960x] Dub, Original, Sub (rus, eng) Galfimbul 16908842051.57 GB 0 0 1487537609

23:53

19-Фев-17

Еще никто не оставлял запись к записи скачать торрент [VIDEO] Конан-варвар Conan the Barbarian . Будь первым!

!Обратная связь