Chap 123 | Weekly Idol Episode 230 | Humans Season 3 torrent

Скачать через торрент [VIDEO] Конан-варвар Conan the Barbarian бесплатно русская версия torrent активатор

Статистика раздачи
Размер:  1.57 GB   |    Зарегистрирован:  1 год 5 месяцев   |    .torrent скачан:  25 раз   |   
Раздают:  1  
   
загрузка...
 
Автор Сообщение

Galfimbul

avatar Galfimbul


Конан-варвар / Conan the Barbarian

Год выпуска: 2011
Страна: США / Nu Image Films, Millennium Films, Paradox Entertainment
Жанр: фэнтези, боевик, приключения
Продолжительность: 01:52:22
Перевод: Русский Профессиональный (полное дублирование)
Оригинальная дорожка: Есть
Cубтитры: русские, английские
Режиссер: Маркус Ниспел / Marcus Nispel
В ролях: Джейсон Момоа (Conan), Рон Перлман (Corin), Стивен Лэнг (Khalar Zym), Рейчел Николс (Tamara), Роуз МакГоун (Marique), Боб Сапп (Ukafa), Лео Ховард (Young Conan), Стив О’Доннелл (Lucius), Нонсо Анози (Artus), Раад Рави (Fassir), Лайла Руасс (Fialla), Саид Тагмауи (Ela-Shan) и другие .
Описание: Природа наделила его силой. Гибель отца сделала его свирепым. Великий киммерийский воин Конан отправляется в дальнее странствие, чтобы совершить отмщение за кровь своего рода. Но поиски, которые начинаются как личная вендетта, вскоре оборачиваются эпической схваткой со сверхъестественными силами, поработившими народы великой Хайбории. Киммерийский воин — последняя надежда на спасение…
Релиз группы
Качество: BDRip / рип с BDRemux 1080p (HDCLUB)
Формат: MP4
Видео кодек: H.264
Аудио кодек: AAC
Видео: 960x400 AR:2.40 1740 kbps 23.976 fps
Аудио №1: [Russian] 2ch 48 kHz 128 kbps - Профессиональный (полное дублирование)
Аудио №2: [English] 2ch 48 kHz 128 kbps - Оригинал
avs [info]: 960x400p 1:1 @ 2997/125 fps (cfr)
x264 [info]: using SAR=1/1
x264 [info]: using cpu capabilities: MMX2 SSE2Fast SSSE3 SSE4.2 AVX FMA3 AVX2 LZCNT BMI2
x264 [info]: profile High, level 4.1

x264 [info]: frame I:1406 Avg QP:17.39 size: 46110
x264 [info]: frame P:45454 Avg QP:21.16 size: 15973
x264 [info]: frame B:114794 Avg QP:23.15 size: 5875
x264 [info]: consecutive B-frames: 4.6% 9.5% 15.7% 26.4% 17.8% 22.3% 2.8% 1.0%
x264 [info]: mb I I16..4: 5.1% 75.8% 19.1%
x264 [info]: mb P I16..4: 1.1% 14.8% 2.1% P16..4: 32.0% 33.2% 8.8% 0.0% 0.0% skip: 7.9%
x264 [info]: mb B I16..4: 0.1% 2.3% 0.3% B16..8: 36.0% 19.3% 3.0% direct: 4.4% skip:34.5% L0:42.9% L1:45.9% BI:11.2%
x264 [info]: 8x8 transform intra:81.9% inter:62.9%
x264 [info]: direct mvs spatial:96.3% temporal:3.7%
x264 [info]: coded y,uvDC,uvAC intra: 86.7% 64.0% 23.3% inter: 25.2% 11.9% 2.4%
x264 [info]: i16 v,h,dc,p: 18% 14% 7% 61%
x264 [info]: i8 v,h,dc,ddl,ddr,vr,hd,vl,hu: 6% 5% 4% 11% 17% 15% 16% 13% 14%
x264 [info]: i4 v,h,dc,ddl,ddr,vr,hd,vl,hu: 8% 6% 4% 9% 17% 16% 16% 11% 14%
x264 [info]: i8c dc,h,v,p: 32% 31% 20% 18%
x264 [info]: Weighted P-Frames: Y:18.4% UV:8.8%
x264 [info]: ref P L0: 52.7% 12.3% 15.2% 6.1% 4.3% 3.3% 3.0% 2.4% 0.6% 0.0%
x264 [info]: ref B L0: 82.7% 7.7% 5.4% 1.8% 1.3% 0.8% 0.4%
x264 [info]: ref B L1: 96.7% 3.3%
x264 [info]: kb/s:1738.66

encoded 161654 frames, 13.98 fps, 1738.66 kb/s
GeneralComplete name : D:\Torrents\Conan the Barbarian.2011.BDRip.x264.960x.rip by Frost O.S.mp4Format : MPEG-4Format profile : Base MediaCodec ID : isom (isom/avc1/iso2)File size : 1.57 GiBDuration : 1 h 52 minOverall bit rate mode : VariableOverall bit rate : 2 006 kb/sMovie name : Conan the Barbarian 2011 BDRip x264 960x rip by Frost O SGenre : ActionContentType : Short FilmEncoded date : UTC 2017-02-19 20:35:22Tagged date : UTC 2017-02-19 20:38:28Writing application : MkvToMp4 version: 0.224 (x64)Cover : YesComment : rip by Frost O.S

VideoID : 1Format : AVCFormat/Info : Advanced Video CodecFormat profile : [email protected] settings, CABAC : YesFormat settings, ReFrames : 8 framesCodec ID : avc1Codec ID/Info : Advanced Video CodingDuration : 1 h 52 minBit rate : 1 740 kb/sMaximum bit rate : 6 464 kb/sWidth : 960 pixelsHeight : 400 pixelsDisplay aspect ratio : 2.40:1Frame rate mode : ConstantFrame rate : 23.976 (24000/1001) FPSOriginal frame rate : 23.976 (23976/1000) FPSColor space : YUVChroma subsampling : 4:2:0Bit depth : 8 bitsScan type : ProgressiveBits/(Pixel*Frame) : 0.189Stream size : 1.36 GiB (87%)Writing library : x264 core 148 r2705 3f5ed56Encoding settings : cabac=1 / ref=8 / deblock=1:-1:-1 / analyse=0x3:0x113 / me=umh / subme=11 / psy=1 / psy_rd=0.90:0.00 / mixed_ref=1 / me_range=32 / chroma_me=1 / trellis=2 / 8x8dct=1 / cqm=0 / deadzone=21,11 / fast_pskip=0 / chroma_qp_offset=-2 / threads=6 / lookahead_threads=1 / sliced_threads=0 / nr=0 / decimate=0 / interlaced=0 / bluray_compat=0 / constrained_intra=0 / bframes=7 / b_pyramid=2 / b_adapt=2 / b_bias=0 / direct=3 / weightb=1 / open_gop=0 / weightp=2 / keyint=250 / keyint_min=23 / scenecut=40 / intra_refresh=0 / rc=2pass / mbtree=0 / bitrate=1740 / ratetol=1.0 / qcomp=0.65 / qpmin=0 / qpmax=69 / qpstep=4 / cplxblur=20.0 / qblur=0.5 / ip_ratio=1.40 / pb_ratio=1.30 / aq=3:0.70Language : EnglishEncoded date : UTC 2017-02-19 20:35:22Tagged date : UTC 2017-02-19 20:36:57Color range : LimitedColor primaries : BT.709Transfer characteristics : BT.709Matrix coefficients : BT.709

Audio #1ID : 2Format : AACFormat/Info : Advanced Audio CodecFormat profile : LCCodec ID : 40Duration : 1 h 52 minBit rate mode : VariableBit rate : 128 kb/sMaximum bit rate : 135 kb/sChannel(s) : 2 channelsChannel positions : Front: L RSampling rate : 48.0 kHzFrame rate : 46.875 FPS (1024 spf)Compression mode : LossyStream size : 103 MiB (6%)Title : Dub / DubLanguage : RussianDefault : YesAlternate group : 1Encoded date : UTC 2017-02-19 20:36:42Tagged date : UTC 2017-02-19 20:36:57

Audio #2ID : 3Format : AACFormat/Info : Advanced Audio CodecFormat profile : LCCodec ID : 40Duration : 1 h 52 minBit rate mode : VariableBit rate : 128 kb/sMaximum bit rate : 135 kb/sChannel(s) : 2 channelsChannel positions : Front: L RSampling rate : 48.0 kHzFrame rate : 46.875 FPS (1024 spf)Compression mode : LossyStream size : 103 MiB (6%)Title : Original / OriginalLanguage : EnglishDefault : NoAlternate group : 1Encoded date : UTC 2017-02-19 20:36:48Tagged date : UTC 2017-02-19 20:36:57

Text #1ID : 4Format : Timed TextMuxing mode : sbtlCodec ID : tx3gDuration : 1 h 44 minBit rate mode : VariableBit rate : 41 b/sStream size : 31.5 KiB (0%)Title : Voronine_R5 / Voronine_R5Language : RussianDefault : YesForced : NoAlternate group : 2Encoded date : UTC 2017-02-19 20:36:57Tagged date : UTC 2017-02-19 20:36:57

Text #2ID : 5Format : Timed TextMuxing mode : sbtlCodec ID : tx3gDuration : 1 h 43 minBit rate mode : VariableBit rate : 26 b/sStream size : 19.6 KiB (0%)Title : Full / FullLanguage : EnglishDefault : NoForced : NoAlternate group : 2Encoded date : UTC 2017-02-19 20:36:57Tagged date : UTC 2017-02-19 20:36:57


Трекер:  [ 19-Фев-2017 22:30 ]

  

Скачать .torrent

Размер .torrent файла 16 KB


Размер: 1.57 GB
Хэш (hash) релиза: b6acea3646e87cfa9870000fa0e8712c2ddeba53

Торренты, похожие на [VIDEO] Конан-варвар Conan the Barbarian скачать торрент

Форум Название Автор Размер S L Добавлен
Видео (Фильмы/Клипы) ·· [VIDEO] Конан-варвар / Conan the Barbarian (Маркус Ниспел / Marcus Nispel) [2011, фэнтези, боевик, приключения, HDRip] [MP4, 480x] Dub Galfimbul 532774281508 MB 0 0 1487541554

00:59

20-Фев-17

Еще никто не оставлял запись к записи скачать торрент [VIDEO] Конан-варвар Conan the Barbarian . Будь первым!

!Обратная связь