TVB Young Charioteers - 衝線
Baby Steps 2 Sub Ita Streaming & Download

Скачать через торрент [VIDEO] Жмурки бесплатно русская версия torrent активатор

Статистика раздачи
Размер:  1.44 GB   |    Зарегистрирован:  1 год 2 месяца   |    .torrent скачан:  33 раза   |   
Раздают:  1  
   
загрузка...
 
Автор Сообщение

Galfimbul

avatar Galfimbul


Жмурки

Год выпуска: 2005
Страна: Россия
Жанр: триллер, комедия, криминал
Продолжительность: 01:51:21
Перевод: не требуется
Cубтитры: нет
Режиссер: Алексей Балабанов
В ролях: Алексей Панин, Дмитрий Дюжев, Никита Михалков, Сергей Маковецкий, Виктор Сухоруков, Дмитрий Певцов, Кирилл Пирогов, Алексей Серебряков, Андрей Мерзликин, Юрий Степанов, Григорий Сиятвинда, Анатолий Журавлев, Гарик Сукачев, Андрей Панин, Александр Баширов, Андрей Краско, Рената Литвинова, Татьяна Догилева, Сергей Глазунов, Жанна Болотова, Степан и другие .
Описание: Жмурки — старинная русская игра: водящий, с завязанными глазами, ловит остальных играющих. К середине 1990-х правила игры изменились: выигрывает тот, кто останется в живых, сделав жмуриками остальных «играющих».
Нижний Новгород. Два мелких бандита Серега и Саймон работали на крупного бандюгана Сергея Михайловича. Только вот очередное его поручение парни завалили: он велел привезти химика, колдовавшего над созданием новой порции белого порошка, а Серега и Саймон устроили в лаборатории настоящую бойню, оставив там трупы — химика и парочки его охранников.
Сергей Михайлович сильно рассердился, но ограничился устным внушением, после чего дал парням другое поручение: съездить в адвокатскую контору и обменять чемоданчик с деньгами на чемоданчик с героином. Но и тут Сереге и Саймону не повезло: обмен-то состоялся, только на выходе из конторы их встретили Корон, Бала и Баклажан — три бандита, которых нанял старший лейтенант милиции Степан, «оборотень в погонах», мечтающий кинуть Сергея Михайловича на большие бабки…
Релиз группы
Качество: BDRip / рип с Blu-ray 1080p (HDCLUB)
Формат: MP4
Видео кодек: H.264
Аудио кодек: AAC
Видео: 960x540 AR:16/9 1740 kbps 23.976 fps
Аудио: 2ch 48 kHz 128 kbps
avs [info]: 960x540p 1:1 @ 2997/125 fps (cfr)
x264 [info]: using SAR=1/1
x264 [info]: using cpu capabilities: MMX2 SSE2Fast SSSE3 SSE4.2 AVX FMA3 AVX2 LZCNT BMI2
x264 [info]: profile High, level 4.1

x264 [info]: frame I:954 Avg QP:18.06 size: 82324
x264 [info]: frame P:30070 Avg QP:21.50 size: 21966
x264 [info]: frame B:126812 Avg QP:22.95 size: 5457
x264 [info]: consecutive B-frames: 1.2% 1.5% 4.4% 9.2% 15.4% 54.1% 8.4% 1.8% 3.1% 0.9%
x264 [info]: mb I I16..4: 4.3% 70.7% 25.0%
x264 [info]: mb P I16..4: 0.2% 3.9% 0.7% P16..4: 34.9% 40.2% 15.2% 0.0% 0.0% skip: 4.8%
x264 [info]: mb B I16..4: 0.0% 0.2% 0.0% B16..8: 32.6% 18.0% 4.1% direct: 4.1% skip:41.0% L0:44.5% L1:45.8% BI: 9.7%
x264 [info]: 8x8 transform intra:76.7% inter:54.0%
x264 [info]: direct mvs spatial:99.0% temporal:1.0%
x264 [info]: coded y,uvDC,uvAC intra: 93.6% 91.3% 73.0% inter: 17.9% 15.1% 6.5%
x264 [info]: i16 v,h,dc,p: 41% 17% 11% 31%
x264 [info]: i8 v,h,dc,ddl,ddr,vr,hd,vl,hu: 10% 7% 7% 10% 15% 14% 13% 12% 12%
x264 [info]: i4 v,h,dc,ddl,ddr,vr,hd,vl,hu: 12% 8% 4% 9% 15% 15% 13% 12% 12%
x264 [info]: i8c dc,h,v,p: 42% 22% 21% 15%
x264 [info]: Weighted P-Frames: Y:2.9% UV:1.3%
x264 [info]: ref P L0: 43.1% 10.6% 19.3% 6.2% 6.5% 4.2% 4.9% 2.2% 2.9% 0.1% 0.0%
x264 [info]: ref B L0: 70.6% 12.3% 6.9% 3.4% 2.5% 2.3% 1.4% 0.5%
x264 [info]: ref B L1: 93.8% 6.2%
x264 [info]: kb/s:1739.10

encoded 157836 frames, 11.62 fps, 1739.10 kb/s
GeneralComplete name : D:\Torrents\Жмурки.2005.BDRip.x264.960x.rip by Frost O.S.mp4Format : MPEG-4Format profile : Base MediaCodec ID : isom (isom/avc1)File size : 1.44 GiBDuration : 1 h 51 minOverall bit rate mode : VariableOverall bit rate : 1 849 kb/sMovie name : Жмурки 2005 BDRip x264 960x rip by Frost O SGenre : ComedyContentType : Short FilmEncoded date : UTC 2017-02-19 19:26:15Tagged date : UTC 2017-02-19 19:28:46Writing application : MkvToMp4 version: 0.224 (x64)Cover : YesComment : rip by Frost O.S

VideoID : 1Format : AVCFormat/Info : Advanced Video CodecFormat profile : [email protected] settings, CABAC : YesFormat settings, ReFrames : 9 framesCodec ID : avc1Codec ID/Info : Advanced Video CodingDuration : 1 h 49 minBit rate : 1 740 kb/sMaximum bit rate : 4 927 kb/sWidth : 960 pixelsHeight : 540 pixelsDisplay aspect ratio : 16:9Frame rate mode : ConstantFrame rate : 23.976 (24000/1001) FPSOriginal frame rate : 23.976 (23976/1000) FPSColor space : YUVChroma subsampling : 4:2:0Bit depth : 8 bitsScan type : ProgressiveBits/(Pixel*Frame) : 0.140Stream size : 1.33 GiB (93%)Writing library : x264 core 148 r2705 3f5ed56Encoding settings : cabac=1 / ref=9 / deblock=1:-1:-1 / analyse=0x3:0x113 / me=umh / subme=11 / psy=1 / psy_rd=1.00:0.00 / mixed_ref=1 / me_range=32 / chroma_me=1 / trellis=2 / 8x8dct=1 / cqm=0 / deadzone=21,11 / fast_pskip=0 / chroma_qp_offset=-2 / threads=6 / lookahead_threads=1 / sliced_threads=0 / nr=0 / decimate=0 / interlaced=0 / bluray_compat=0 / constrained_intra=0 / bframes=9 / b_pyramid=2 / b_adapt=2 / b_bias=0 / direct=3 / weightb=1 / open_gop=0 / weightp=2 / keyint=250 / keyint_min=23 / scenecut=40 / intra_refresh=0 / rc=2pass / mbtree=0 / bitrate=1740 / ratetol=1.0 / qcomp=0.65 / qpmin=0 / qpmax=69 / qpstep=4 / cplxblur=20.0 / qblur=0.5 / ip_ratio=1.40 / pb_ratio=1.30 / aq=3:0.90Language : EnglishEncoded date : UTC 2017-02-19 19:26:15Tagged date : UTC 2017-02-19 19:27:24Color range : LimitedColor primaries : BT.709Transfer characteristics : BT.709Matrix coefficients : BT.709

AudioID : 2Format : AACFormat/Info : Advanced Audio CodecFormat profile : LCCodec ID : 40Duration : 1 h 51 minBit rate mode : VariableBit rate : 128 kb/sMaximum bit rate : 135 kb/sChannel(s) : 2 channelsChannel positions : Front: L RSampling rate : 48.0 kHzFrame rate : 46.875 FPS (1024 spf)Compression mode : LossyStream size : 102 MiB (7%)Language : RussianDefault : YesAlternate group : 1Encoded date : UTC 2017-02-19 19:27:16Tagged date : UTC 2017-02-19 19:27:24


Трекер:  [ 19-Фев-2017 21:30 ]

  

Скачать .torrent

Размер .torrent файла 15 KB


Размер: 1.44 GB
Хэш (hash) релиза: 82c66d6780541a1084dbc1e9f369bd76142e4ecc

Еще никто не оставлял запись к записи скачать торрент [VIDEO] Жмурки . Будь первым!

!Обратная связь