The Proposal: Season 1 | L'héritage tata Lucie | Snail Hotel

Скачать через торрент [VIDEO] Выживший The Revenant бесплатно русская версия torrent активатор

Статистика раздачи
Размер:  2.34 GB   |    Зарегистрирован:  1 год 5 месяцев   |    .torrent скачан:  42 раза   |   
Раздают:  1  
   
загрузка...
 
Автор Сообщение

Galfimbul

avatar Galfimbul


<span class="post-font-serif1">Выживший / The Revenant</span>

<span class="post-font-serif1">Год выпуска: 2015
Страна: США / Anonymous Content, Appian Way, New Regency Pictures
Жанр: триллер, драма, приключения, вестерн
Продолжительность: 02:36:21
Перевод №1: Русский Профессиональный (полное дублирование) Blu-ray NOR
Перевод №2: Украинский Профессиональный (полное дублирование) Blu-ray NOR
Оригинальная дорожка: Есть
Cубтитры: русские, украинские, английские</span>
<span class="post-font-serif1">Режиссер: Алехандро Гонсалес Иньярриту / Alejandro González Iñárritu</span>
<span class="post-font-serif1">В ролях: Леонардо ДиКаприо, Том Харди, Донал Глисон, Уилл Поултер, Пол Андерсон, Лукас Хаас, Брэд Картер, Кристоффер Йонер, Брендан Флетчер, Хавьер Ботет, Кори Грим, Роберт Молони, Винсент Леклерк, Джошуа Бёрдж, МакКалеб Барнетт, Рэй Чейз, Тимоти Лайл, Эдриан Макморран, Дэйв Бурчилл, Майкл Виллар и другие .</span>
<span class="post-font-serif1">Описание: Охотник Хью Гласс серьезно ранен на неизведанных просторах американского Дикого Запада. Товарищ Хью по отряду покорителей новых земель Джон Фицжеральд предательски оставляет его умирать в одиночестве. Теперь у Гласса осталось только одно оружие — его сила воли. Он готов бросить вызов первобытной природе, суровой зиме и враждебным племенам индейцев, только чтобы выжить и отомстить Фицжеральду.</span>
<span class="post-font-serif1">Релиз группы </span>
<span class="post-font-serif1">Качество: BDRip / рип с BDRemux 1080p (HDCLUB)
Формат: MP4
Видео кодек: H.264
Аудио кодек: AAC
Видео: 960x402 AR:2.40 1740 kbps 23.976 fps
Аудио №1: [Russian] 2ch 48 kHz 128 kbps - Профессиональный (полное дублирование) Blu-ray NOR
Аудио №2: [Ukrainian] 2ch 48 kHz 128 kbps - Профессиональный (полное дублирование) Blu-ray NOR
Аудио №3: [English] 2ch 48 kHz 128 kbps - Оригинал</span>
avs [info]: 960x402p 1:1 @ 2997/125 fps (cfr)
x264 [info]: using SAR=1/1
x264 [info]: using cpu capabilities: MMX2 SSE2Fast SSSE3 SSE4.2 AVX FMA3 AVX2 LZCNT BMI2
x264 [info]: profile High, level 4.1

x264 [info]: frame I:1175 Avg QP:16.67 size: 58308
x264 [info]: frame P:58733 Avg QP:20.41 size: 17766
x264 [info]: frame B:165020 Avg QP:22.01 size: 5623
x264 [info]: consecutive B-frames: 4.5% 5.0% 9.8% 32.2% 18.1% 20.1% 3.5% 4.9% 1.8%
x264 [info]: mb I I16..4: 7.1% 65.1% 27.8%
x264 [info]: mb P I16..4: 0.6% 8.0% 2.2% P16..4: 31.7% 34.8% 12.7% 0.0% 0.0% skip:10.0%
x264 [info]: mb B I16..4: 0.1% 1.6% 0.5% B16..8: 32.2% 17.3% 2.9% direct: 4.3% skip:41.0% L0:38.2% L1:44.9% BI:16.9%
x264 [info]: 8x8 transform intra:72.6% inter:56.1%
x264 [info]: direct mvs spatial:95.8% temporal:4.2%
x264 [info]: coded y,uvDC,uvAC intra: 81.7% 64.7% 26.6% inter: 21.1% 10.3% 2.9%
x264 [info]: i16 v,h,dc,p: 25% 9% 6% 60%
x264 [info]: i8 v,h,dc,ddl,ddr,vr,hd,vl,hu: 13% 8% 5% 9% 13% 11% 15% 11% 16%
x264 [info]: i4 v,h,dc,ddl,ddr,vr,hd,vl,hu: 36% 5% 6% 6% 10% 9% 10% 8% 10%
x264 [info]: i8c dc,h,v,p: 28% 35% 22% 14%
x264 [info]: Weighted P-Frames: Y:8.4% UV:3.6%
x264 [info]: ref P L0: 57.7% 15.8% 11.6% 4.9% 3.5% 3.0% 2.8% 0.6% 0.0%
x264 [info]: ref B L0: 83.7% 8.1% 4.3% 2.1% 1.3% 0.6%
x264 [info]: ref B L1: 95.6% 4.4%
x264 [info]: kb/s:1739.53

encoded 224928 frames, 17.46 fps, 1739.53 kb/s
GeneralComplete name : D:\Torrents\The Revenant.2015.BDRip.x264.960x.rip by Frost O.S.mp4Format : MPEG-4Format profile : Base MediaCodec ID : isom (isom/avc1/iso2)File size : 2.34 GiBDuration : 2 h 36 minOverall bit rate mode : VariableOverall bit rate : 2 131 kb/sMovie name : The Revenant 2015 BDRip x264 960x rip by Frost O SGenre : WesternContentType : Short FilmEncoded date : UTC 2017-02-18 15:28:15Tagged date : UTC 2017-02-18 15:33:38Writing application : MkvToMp4 version: 0.224 (x64)Cover : Yes

VideoID : 1Format : AVCFormat/Info : Advanced Video CodecFormat profile : [email protected] settings, CABAC : YesFormat settings, ReFrames : 7 framesCodec ID : avc1Codec ID/Info : Advanced Video CodingDuration : 2 h 36 minBit rate : 1 740 kb/sMaximum bit rate : 9 352 kb/sWidth : 960 pixelsHeight : 402 pixelsDisplay aspect ratio : 2.40:1Frame rate mode : ConstantFrame rate : 23.976 (24000/1001) FPSOriginal frame rate : 23.976 (23976/1000) FPSColor space : YUVChroma subsampling : 4:2:0Bit depth : 8 bitsScan type : ProgressiveBits/(Pixel*Frame) : 0.188Stream size : 1.90 GiB (81%)Writing library : x264 core 148 r2705 3f5ed56Encoding settings : cabac=1 / ref=7 / deblock=1:-2:-2 / analyse=0x3:0x113 / me=umh / subme=11 / psy=1 / psy_rd=0.95:0.00 / mixed_ref=1 / me_range=32 / chroma_me=1 / trellis=2 / 8x8dct=1 / cqm=0 / deadzone=21,11 / fast_pskip=0 / chroma_qp_offset=-2 / threads=6 / lookahead_threads=1 / sliced_threads=0 / nr=0 / decimate=0 / interlaced=0 / bluray_compat=0 / constrained_intra=0 / bframes=8 / b_pyramid=2 / b_adapt=2 / b_bias=0 / direct=3 / weightb=1 / open_gop=0 / weightp=2 / keyint=250 / keyint_min=23 / scenecut=40 / intra_refresh=0 / rc=2pass / mbtree=0 / bitrate=1740 / ratetol=1.0 / qcomp=0.75 / qpmin=0 / qpmax=69 / qpstep=4 / cplxblur=20.0 / qblur=0.5 / ip_ratio=1.40 / pb_ratio=1.30 / aq=3:0.40Language : EnglishEncoded date : UTC 2017-02-18 15:28:15Tagged date : UTC 2017-02-18 15:30:31Color range : LimitedColor primaries : BT.709Transfer characteristics : BT.709Matrix coefficients : BT.709

Audio #1ID : 2Format : AACFormat/Info : Advanced Audio CodecFormat profile : LCCodec ID : 40Duration : 2 h 36 minBit rate mode : VariableBit rate : 128 kb/sMaximum bit rate : 135 kb/sChannel(s) : 2 channelsChannel positions : Front: L RSampling rate : 48.0 kHzFrame rate : 46.875 FPS (1024 spf)Compression mode : LossyStream size : 143 MiB (6%)Title : Dub_ Blu_ray NOR / Dub_ Blu_ray NORLanguage : RussianDefault : YesAlternate group : 1Encoded date : UTC 2017-02-18 15:29:52Tagged date : UTC 2017-02-18 15:30:31

Audio #2ID : 3Format : AACFormat/Info : Advanced Audio CodecFormat profile : LCCodec ID : 40Duration : 2 h 36 minBit rate mode : VariableBit rate : 128 kb/sMaximum bit rate : 135 kb/sChannel(s) : 2 channelsChannel positions : Front: L RSampling rate : 48.0 kHzFrame rate : 46.875 FPS (1024 spf)Compression mode : LossyStream size : 143 MiB (6%)Title : Dub_ Blu_ray NOR / Dub_ Blu_ray NORLanguage : UkrainianDefault : NoAlternate group : 1Encoded date : UTC 2017-02-18 15:30:06Tagged date : UTC 2017-02-18 15:30:31

Audio #3ID : 4Format : AACFormat/Info : Advanced Audio CodecFormat profile : LCCodec ID : 40Duration : 2 h 36 minBit rate mode : VariableBit rate : 128 kb/sMaximum bit rate : 135 kb/sChannel(s) : 2 channelsChannel positions : Front: L RSampling rate : 48.0 kHzFrame rate : 46.875 FPS (1024 spf)Compression mode : LossyStream size : 143 MiB (6%)Title : Original / OriginalLanguage : EnglishDefault : NoAlternate group : 1Encoded date : UTC 2017-02-18 15:30:19Tagged date : UTC 2017-02-18 15:30:31

Text #1ID : 5Format : Timed TextMuxing mode : sbtlCodec ID : tx3gDuration : 2 h 36 minBit rate mode : VariableBit rate : 6 b/sStream size : 6.61 KiB (0%)Title : Forced_ iTunes / Forced_ iTunesLanguage : RussianDefault : YesForced : NoAlternate group : 2Encoded date : UTC 2017-02-18 15:30:31Tagged date : UTC 2017-02-18 15:30:31

Text #2ID : 6Format : Timed TextMuxing mode : sbtlCodec ID : tx3gDuration : 2 h 36 minBit rate mode : VariableBit rate : 40 b/sStream size : 46.1 KiB (0%)Title : iTunes / iTunesLanguage : RussianDefault : NoForced : NoAlternate group : 2Encoded date : UTC 2017-02-18 15:30:31Tagged date : UTC 2017-02-18 15:30:31

Text #3ID : 7Format : Timed TextMuxing mode : sbtlCodec ID : tx3gDuration : 2 h 36 minBit rate mode : VariableBit rate : 6 b/sStream size : 6.32 KiB (0%)Title : Forced_ iTunes / Forced_ iTunesLanguage : UkrainianDefault : NoForced : NoAlternate group : 2Encoded date : UTC 2017-02-18 15:30:31Tagged date : UTC 2017-02-18 15:30:31

Text #4ID : 8Format : Timed TextMuxing mode : sbtlCodec ID : tx3gDuration : 2 h 36 minBit rate mode : VariableBit rate : 41 b/sStream size : 47.6 KiB (0%)Title : iTunes / iTunesLanguage : UkrainianDefault : NoForced : NoAlternate group : 2Encoded date : UTC 2017-02-18 15:30:31Tagged date : UTC 2017-02-18 15:30:31

Text #5ID : 9Format : Timed TextMuxing mode : sbtlCodec ID : tx3gDuration : 2 h 36 minBit rate mode : VariableBit rate : 4 b/sStream size : 4.09 KiB (0%)Title : Forced_ iTunes / Forced_ iTunesLanguage : EnglishDefault : NoForced : NoAlternate group : 2Encoded date : UTC 2017-02-18 15:30:31Tagged date : UTC 2017-02-18 15:30:31

Text #6ID : 10Format : Timed TextMuxing mode : sbtlCodec ID : tx3gDuration : 2 h 36 minBit rate mode : VariableBit rate : 26 b/sStream size : 29.6 KiB (0%)Title : iTunes / iTunesLanguage : EnglishDefault : NoForced : NoAlternate group : 2Encoded date : UTC 2017-02-18 15:30:31Tagged date : UTC 2017-02-18 15:30:31
<div class="clear" style="height: 8px;"></div>

Трекер:  [ 18-Фев-2017 18:00 ]

  

Скачать .torrent

Размер .torrent файла 12 KB


Размер: 2.34 GB
Хэш (hash) релиза: 04616256038ed062e87b74516dd89fb39a68bef8

Еще никто не оставлял запись к записи скачать торрент [VIDEO] Выживший The Revenant . Будь первым!

!Обратная связь