Aik Hi Bhool | Markus Guentner - Crystal Castle (Original Mix) | Sw08rd Art Online Fatal Bullet

Скачать через торрент [VIDEO] Выживший The Revenant бесплатно русская версия torrent активатор

Статистика раздачи
Размер:  683 MB   |    Зарегистрирован:  1 год 5 месяцев   |    .torrent скачан:  41 раз   |   
Раздают:  1  
   
загрузка...
 
Автор Сообщение

Galfimbul

avatar Galfimbul


<span class="post-font-serif1">Выживший / The Revenant</span>

<span class="post-font-serif1">Год выпуска: 2015
Страна: США / Anonymous Content, Appian Way, New Regency Pictures
Жанр: триллер, драма, приключения, вестерн
Продолжительность: 02:36:21
Перевод: Русский Профессиональный (полное дублирование) Blu-ray NOR
Cубтитры: нет</span>
<span class="post-font-serif1">Режиссер: Алехандро Гонсалес Иньярриту / Alejandro González Iñárritu</span>
<span class="post-font-serif1">В ролях: Леонардо ДиКаприо, Том Харди, Донал Глисон, Уилл Поултер, Пол Андерсон, Лукас Хаас, Брэд Картер, Кристоффер Йонер, Брендан Флетчер, Хавьер Ботет, Кори Грим, Роберт Молони, Винсент Леклерк, Джошуа Бёрдж, МакКалеб Барнетт, Рэй Чейз, Тимоти Лайл, Эдриан Макморран, Дэйв Бурчилл, Майкл Виллар и другие .</span>
<span class="post-font-serif1">Описание: Охотник Хью Гласс серьезно ранен на неизведанных просторах американского Дикого Запада. Товарищ Хью по отряду покорителей новых земель Джон Фицжеральд предательски оставляет его умирать в одиночестве. Теперь у Гласса осталось только одно оружие — его сила воли. Он готов бросить вызов первобытной природе, суровой зиме и враждебным племенам индейцев, только чтобы выжить и отомстить Фицжеральду.</span>
<span class="post-font-serif1">Релиз группы </span>
<span class="post-font-serif1">Качество: HDRip / рип с BDRip 720p (HDCLUB)
Формат: MP4
Видео кодек: XviD
Аудио кодек: AAC
Видео: 480x200 AR:2.40 475 kbps 23.976 fps
Аудио: [Russian] 2ch 48 kHz 128 kbps - Профессиональный (полное дублирование) Blu-ray NOR</span>
GeneralComplete name : D:\Torrents\The Revenant.2015.HDRip.XviD.480x.rip by Frost O.S.mp4Format : MPEG-4Format profile : Base MediaCodec ID : isom (isom/iso2)File size : 683 MiBDuration : 2 h 36 minOverall bit rate mode : VariableOverall bit rate : 611 kb/sMovie name : The Revenant 2015 HDRip XviD 480x rip by Frost O SGenre : WesternContentType : Short FilmEncoded date : UTC 2017-02-18 15:42:31Tagged date : UTC 2017-02-18 15:44:04Writing application : MkvToMp4 version: 0.224 (x64)Cover : YesComment : rip by Frost O.S

VideoID : 1Format : MPEG-4 VisualFormat profile : Advanced [email protected] settings, BVOP : YesFormat settings, QPel : NoFormat settings, GMC : No warppointsFormat settings, Matrix : CustomCodec ID : 20Duration : 2 h 36 minBit rate mode : VariableBit rate : 475 kb/sMaximum bit rate : 193 Mb/sWidth : 480 pixelsHeight : 200 pixelsDisplay aspect ratio : 2.40:1Frame rate mode : VariableFrame rate : 23.976 (23976/1000) FPSMinimum frame rate : 11.988 FPSMaximum frame rate : 23.976 FPSColor space : YUVChroma subsampling : 4:2:0Bit depth : 8 bitsScan type : ProgressiveCompression mode : LossyBits/(Pixel*Frame) : 0.206Stream size : 531 MiB (78%)Title : avi_GPAC0.5.2_DEV_rev248_g39d5978_masterWriting library : XviD 1.2.1 (UTC 2008-12-04)Language : EnglishTagged date : UTC 2017-02-18 15:43:07

AudioID : 2Format : AACFormat/Info : Advanced Audio CodecFormat profile : LCCodec ID : 40Duration : 2 h 36 minBit rate mode : VariableBit rate : 128 kb/sMaximum bit rate : 135 kb/sChannel(s) : 2 channelsChannel positions : Front: L RSampling rate : 48.0 kHzFrame rate : 46.875 FPS (1024 spf)Compression mode : LossyStream size : 143 MiB (21%)Title : Dub_ Blu_ray NOR / Dub_ Blu_ray NORLanguage : RussianDefault : YesAlternate group : 1Encoded date : UTC 2017-02-18 15:43:04Tagged date : UTC 2017-02-18 15:43:07
<div class="clear" style="height: 8px;"></div>

Трекер:  [ 18-Фев-2017 18:00 ]

  

Скачать .torrent

Размер .torrent файла 14 KB


Размер: 683 MB
Хэш (hash) релиза: 18ce963beb9e8a8282ec3469acbe628c92f5a5d6

Еще никто не оставлял запись к записи скачать торрент [VIDEO] Выживший The Revenant . Будь первым!

!Обратная связь