Жирным шрифтом / The Bold Type [02x01-05 из 10] (2018) WEB-DLRip | Gears Media | Роман Злотников, Алексей Махров – Разговор с Вождем 4. Голос Вождя (2018) MP3 | • FAQ (для новичков)

Скачать через торрент [VIDEO] Клетка The Cell бесплатно русская версия torrent активатор

Статистика раздачи
Размер:  2.27 GB   |    Зарегистрирован:  1 год 5 месяцев   |    .torrent скачан:  41 раз   |   
Раздают:  1  
   
загрузка...
 
Автор Сообщение

Galfimbul

avatar Galfimbul


Клетка / The Cell
«Может ли красавица приручить чудовище?»
Премьера: 2000
Оригинальное название: The Cell
Страна: США, Германия
Жанр: ужасы, фантастика, триллер
Возраст: 16+

Режиссер: Тарсем Сингх / Tarsem Singh

В ролях: Дженнифер Лопес, Винс Вон, Винсент Д`Онофрио, Джейк Уэбер, Дилан Бэйкер, Марианн Жан-Баптист, Патрик Бошо, Джерри Бекер, Тара Сабкофф, Катрин Сазерленд

Описание фильма Клетка (2000): Главная героиня фильма, психиатр, проникает в сознание серийного убийцы, находящегося в коме. На его счету уже почти десяток жертв, а жертвами, как правило, становятся молодые привлекательные девушки, которых маньяк истязает самым нечеловеческим образом, прежде чем лишить их жизни.

Последнюю похищенную им девушку пока так и не нашли, но есть надежда, что ее еще можно спасти. Однако для этого сначала надо внедриться в темные мозги психопата и выяснить, где же находится страшная камера пыток.

Продолжительность: 01:47:10
Перевод: Дублированный [Нева-1]
Оригинальная дорожка: есть

Автор рипа:

Качество видео: BDRip Исходник: Blu-Ray Remux (1080p) Формат: mp4
Видео кодек: MPEG-4 AVC Аудио кодек: AAC
Видео: 1280x534 (2.40:1) at 23.976 fps, AVC at 2 759 kbps avg, 0.168 bit/pixel
Аудио №1 Rus: 48.0 KHz, AAC, 2 ch, 128.0 Kbps
Аудио №2 Eng: 48.0 KHz, AAC, 2 ch, 128.0 Kbps
Субтитры: русские (форсированные, полные), английские (полные)
Навигация по главам: нет
Размер: 2.27 GiB
avs [info]: 1280x534p 1:1 @ 24000/1001 fps (cfr)
x264 [info]: using SAR=1/1
x264 [info]: using cpu capabilities: MMX2 SSE2Fast SSSE3 Cache64
x264 [info]: profile High, level 4.1
x264 [info]: frame I:1396 Avg QP:15.13 size:103404
x264 [info]: frame P:31601 Avg QP:18.27 size: 30508
x264 [info]: frame B:121171 Avg QP:20.69 size: 9153
x264 [info]: consecutive B-frames: 1.9% 1.6% 4.8% 17.1% 18.1% 48.6% 5.8% 2.0%
x264 [info]: mb I I16..4: 6.6% 79.6% 13.8%
x264 [info]: mb P I16..4: 2.2% 10.4% 1.2% P16..4: 41.9% 23.2% 13.4% 0.0% 0.0% skip: 7.7%
x264 [info]: mb B I16..4: 0.1% 1.0% 0.1% B16..8: 39.8% 7.6% 1.9% direct: 6.0% skip:43.5% L0:44.1% L1:46.6% BI: 9.3%
x264 [info]: 8x8 transform intra:76.7% inter:64.6%
x264 [info]: coded y,uvDC,uvAC intra: 77.8% 75.9% 47.0% inter: 23.2% 22.9% 2.2%
x264 [info]: i16 v,h,dc,p: 43% 16% 9% 33%
x264 [info]: i8 v,h,dc,ddl,ddr,vr,hd,vl,hu: 13% 8% 9% 9% 14% 12% 13% 10% 12%
x264 [info]: i4 v,h,dc,ddl,ddr,vr,hd,vl,hu: 14% 8% 5% 9% 15% 14% 13% 11% 12%
x264 [info]: i8c dc,h,v,p: 38% 27% 19% 16%
x264 [info]: Weighted P-Frames: Y:4.6% UV:2.1%
x264 [info]: ref P L0: 43.8% 10.1% 19.6% 6.9% 6.3% 4.3% 4.2% 2.2% 2.3% 0.2% 0.0%
x264 [info]: ref B L0: 74.2% 12.0% 5.5% 2.9% 2.1% 1.9% 1.0% 0.4%
x264 [info]: ref B L1: 93.2% 6.8%
x264 [info]: kb/s:2758.92
encoded 154168 frames, 2.18 fps, 2758.92 kb/s
GeneralComplete name : D:\Torrents\Completed\Kletka_2000_KinoGadget.mp4Format : MPEG-4Format profile : Base MediaCodec ID : isom (isom)File size : 2.27 GiBDuration : 1 h 47 minOverall bit rate mode : VariableOverall bit rate : 3 026 kb/sMovie name : Клетка | KinoGadgetPerformer : Тарсем СингхDirector : Тарсем СингхActor : Дженнифер Лопес / Винс Вон / Винсент Д`Онофрио / Джейк Уэбер / Дилан Бэйкер / Марианн Жан-Баптист / Патрик Бошо / Джерри Бекер / Тара Сабкофф / Катрин СазерлендScreenplay by : Марк ПротосевичProducer : Хулио Каро / Эрик МакЛеод / Донна ЛэнглиGenre : Horror, ThrillerContentType : Short FilmRecorded date : 2000Encoded date : UTC 2017-02-16 06:15:30Tagged date : UTC 2017-02-18 07:26:08Cover : YesContentRating : mpaa|R|400|LongDescription : Главная героиня фильма, психиатр, проникает в сознание серийного убийцы, находящегося в коме. На его счету уже почти десяток жертв, а жертвами, как правило, становятся молодые привлекательные девушки, которых маньяк истязает самым нечеловеческим образом, прежде чем лишить их жизниHDVideo : Yes

VideoID : 1Format : AVCFormat/Info : Advanced Video CodecFormat profile : [email protected] settings, CABAC : YesFormat settings, ReFrames : 9 framesCodec ID : avc1Codec ID/Info : Advanced Video CodingDuration : 1 h 47 minBit rate : 2 759 kb/sMaximum bit rate : 31.4 Mb/sWidth : 1 280 pixelsHeight : 534 pixelsDisplay aspect ratio : 2.40:1Frame rate mode : ConstantFrame rate : 23.976 (24000/1001) FPSColor space : YUVChroma subsampling : 4:2:0Bit depth : 8 bitsScan type : ProgressiveBits/(Pixel*Frame) : 0.168Stream size : 2.07 GiB (91%)Writing library : x264 core 148 r2638 7599210Encoding settings : cabac=1 / ref=9 / deblock=1:-1:-1 / analyse=0x3:0x113 / me=umh / subme=9 / psy=1 / psy_rd=1.00:0.00 / mixed_ref=1 / me_range=32 / chroma_me=1 / trellis=2 / 8x8dct=1 / cqm=0 / deadzone=21,11 / fast_pskip=0 / chroma_qp_offset=-2 / threads=3 / lookahead_threads=1 / sliced_threads=0 / nr=0 / decimate=1 / interlaced=0 / bluray_compat=0 / constrained_intra=0 / bframes=7 / b_pyramid=2 / b_adapt=2 / b_bias=0 / direct=1 / weightb=1 / open_gop=0 / weightp=2 / keyint=250 / keyint_min=25 / scenecut=40 / intra_refresh=0 / rc_lookahead=60 / rc=crf / mbtree=1 / crf=18.5 / qcomp=0.60 / qpmin=0 / qpmax=69 / qpstep=4 / vbv_maxrate=62500 / vbv_bufsize=78125 / crf_max=0.0 / nal_hrd=none / filler=0 / ip_ratio=1.40 / aq=1:1.00Encoded date : UTC 2017-02-16 04:14:20Tagged date : UTC 2017-02-16 06:16:23

Audio #1ID : 2Format : AACFormat/Info : Advanced Audio CodecFormat profile : LCCodec ID : 40Duration : 1 h 47 minBit rate mode : VariableBit rate : 128 kb/sMaximum bit rate : 135 kb/sChannel(s) : 2 channelsChannel positions : Front: L RSampling rate : 48.0 kHzFrame rate : 46.875 FPS (1024 spf)Compression mode : LossyStream size : 98.0 MiB (4%)Title : DubLanguage : RussianEncoded date : UTC 2017-02-16 04:18:01Tagged date : UTC 2017-02-16 06:16:23

Audio #2ID : 3Format : AACFormat/Info : Advanced Audio CodecFormat profile : LCCodec ID : 40Duration : 1 h 47 minBit rate mode : VariableBit rate : 128 kb/sMaximum bit rate : 135 kb/sChannel(s) : 2 channelsChannel positions : Front: L RSampling rate : 48.0 kHzFrame rate : 46.875 FPS (1024 spf)Compression mode : LossyStream size : 98.1 MiB (4%)Title : OriginalLanguage : EnglishEncoded date : UTC 2017-02-16 04:27:36Tagged date : UTC 2017-02-16 06:16:23

Text #1ID : 4Format : Timed TextCodec ID : tx3gDuration : 13 min 11 sBit rate mode : VariableBit rate : 3 b/sStream size : 304 Bytes (0%)Title : ForcedLanguage : RussianForced : NoEncoded date : UTC 2017-02-16 06:16:22Tagged date : UTC 2017-02-16 06:16:23

Text #2ID : 5Format : Timed TextCodec ID : tx3gDuration : 1 h 41 minBit rate mode : VariableBit rate : 60 b/sStream size : 44.4 KiB (0%)Title : FullLanguage : RussianForced : NoEncoded date : UTC 2017-02-16 06:16:22Tagged date : UTC 2017-02-16 06:16:23

Text #3ID : 6Format : Timed TextCodec ID : tx3gDuration : 1 h 41 minBit rate mode : VariableBit rate : 37 b/sStream size : 27.6 KiB (0%)Title : FullLanguage : EnglishForced : NoEncoded date : UTC 2017-02-16 06:16:23Tagged date : UTC 2017-02-16 06:16:23
<a href="tracker.php?rid=39840292" class="postLink"> </a>
<div class="clear" style="height: 8px;"></div>

Трекер:  [ 18-Фев-2017 11:00 ]

  

Скачать .torrent

Размер .torrent файла 11 KB


Размер: 2.27 GB
Хэш (hash) релиза: 2d1f134707b1aceeca147b9907a161d74494dfe8

Еще никто не оставлял запись к записи скачать торрент [VIDEO] Клетка The Cell . Будь первым!

!Обратная связь