Matka Brata Mojego Syna (2013) | OpenShot v2 4 1 64bit Video Editor Multilang | Season 2 Episode 5 The Front

Скачать через торрент [MULT] Шрек: Коллекция Shrek: Collection бесплатно русская версия torrent активатор

Статистика раздачи
Размер:  7.49 GB   |    Зарегистрирован:  1 год 4 месяца   |    .torrent скачан:  54 раза   |   
Раздают:  1  
   
загрузка...
 
Автор Сообщение

Galfimbul

avatar Galfimbul


<span class="post-font-serif1">Шрек: Коллекция / Shrek: Collection</span>

<span class="post-font-serif1">Шрек / Shrek</span>


<span class="post-font-serif1">Год выпуска: 2001
Страна: США
Жанр: комедия, приключения, семейный, мультфильм
Продолжительность: 01:30:08
Перевод №1: Профессиональный (полное дублирование) Blu-ray CEE
Перевод №2: Профессиональный (полное дублирование) 1+1
Перевод №3: Профессиональный (многоголосый, закадровый) Superbit
Перевод №4: Профессиональный (многоголосый, закадровый) Карусель #1
Перевод №5: Профессиональный (многоголосый, закадровый) Киномания/Карусель #2
Перевод №6: Профессиональный (многоголосый, закадровый) Новый Канал
Перевод №7: Авторский (одноголосый, закадровый) Дмитрий «Гоблин» Пучков
Перевод №8: Авторский (одноголосый, закадровый) П.Гланц
Перевод №9: Авторский (одноголосый, закадровый) А.Гаврилов
Перевод №10: Авторский (одноголосый, закадровый) С.Визгунов
Оригинальная дорожка: Есть
Cубтитры: русские, украински, английские</span>
<span class="post-font-serif1">Режиссер: Эндрю Адамсон / Andrew Adamson, Вики Дженсон / Vicky Jenson</span>
<span class="post-font-serif1">В ролях: Майк Майерс, Эдди Мёрфи, Кэмерон Диаз, Джон Литгоу, Венсан Кассель, Питер Дэннис, Клив Пирс, Джим Каммингс, Бобби Блок, Крис Миллер и другие .</span>
<span class="post-font-serif1">Описание: Жил да был в сказочном государстве большой зеленый великан по имени Шрек.
Жил он в гордом одиночестве в лесу, на болоте, которое считал своим.
Но однажды злобный коротышка — лорд Фаркуад, правитель волшебного королевства, безжалостно согнал на Шреково болото всех сказочных обитателей.

И беспечной жизни зеленого тролля пришел конец. Но лорд Фаркуад пообещал вернуть Шреку болото, если великан добудет ему прекрасную принцессу Фиону, которая томится в неприступной башне, охраняемой огнедышащим драконом…

Потрясающий мультфильм занял свое заслуженное место в пятерке самых кассовых мультфильмов всех времен.</span>
<span class="post-font-serif1">Релиз группы </span>
<span class="post-font-serif1">Качество: BDRip / рип с Blu-ray Disc 1080p CEE
Формат: MP4
Видео кодек: H.264
Аудио кодек: AAC
Видео: 960x540 AR:16/9 1600 kbps 23.976 fps
Аудио №1: [Russian] 2ch 48 kHz 128 kbps - [Dub] Профессиональный (полное дублирование) Blu-ray CEE
Аудио №2: [Ukrainian] 2ch 48 kHz 128 kbps - [Dub] Профессиональный (полное дублирование) 1+1
Аудио №3: [Russian] 2ch 48 kHz 128 kbps - [MVO] Профессиональный (многоголосый, закадровый) Superbit
Аудио №4: [Russian] 2ch 48 kHz 128 kbps - [MVO] Профессиональный (многоголосый, закадровый) Карусель #1
Аудио №5: [Russian] 2ch 48 kHz 128 kbps - [MVO] Профессиональный (многоголосый, закадровый) Киномания/Карусель #2
Аудио №6: [Ukrainian] 2ch 48 kHz 128 kbps - [MVO] Профессиональный (многоголосый, закадровый) Новый Канал
Аудио №7: [Russian] 2ch 48 kHz 128 kbps - [VO] Авторский (одноголосый, закадровый) Дмитрий «Гоблин» Пучков
Аудио №8: [Russian] 2ch 48 kHz 128 kbps - [VO] Авторский (одноголосый, закадровый) П.Гланц
Аудио №9: [Russian] 2ch 48 kHz 128 kbps - [VO] Авторский (одноголосый, закадровый) А.Гаврилов
Аудио №10: [Russian] 2ch 48 kHz 128 kbps - [VO] Авторский (одноголосый, закадровый) С.Визгунов
Аудио №11: [English] 2ch 48 kHz 128 kbps - Оригинал</span>
avs [info]: 960x540p 1:1 @ 2997/125 fps (cfr)
x264 [info]: using SAR=1/1
x264 [info]: using cpu capabilities: MMX2 SSE2Fast SSSE3 SSE4.2 AVX FMA3 AVX2 LZCNT BMI2
x264 [info]: profile High, level 4.1

x264 [info]: frame I:1211 Avg QP:16.20 size: 81128
x264 [info]: frame P:34884 Avg QP:20.14 size: 16050
x264 [info]: frame B:93578 Avg QP:21.89 size: 4522
x264 [info]: consecutive B-frames: 3.2% 4.0% 26.9% 27.6% 15.5% 19.1% 1.4% 0.9% 0.6% 0.6%
x264 [info]: mb I I16..4: 4.8% 73.4% 21.8%
x264 [info]: mb P I16..4: 0.7% 7.9% 1.3% P16..4: 26.8% 25.1% 9.6% 0.0% 0.0% skip:28.7%
x264 [info]: mb B I16..4: 0.1% 0.9% 0.1% B16..8: 22.4% 11.7% 2.3% direct: 3.0% skip:59.4% L0:38.6% L1:44.9% BI:16.5%
x264 [info]: 8x8 transform intra:78.7% inter:56.9%
x264 [info]: direct mvs spatial:93.2% temporal:6.8%
x264 [info]: coded y,uvDC,uvAC intra: 87.3% 84.8% 58.0% inter: 13.7% 10.2% 4.7%
x264 [info]: i16 v,h,dc,p: 15% 8% 5% 71%
x264 [info]: i8 v,h,dc,ddl,ddr,vr,hd,vl,hu: 9% 8% 4% 10% 14% 14% 14% 13% 14%
x264 [info]: i4 v,h,dc,ddl,ddr,vr,hd,vl,hu: 12% 7% 5% 9% 16% 14% 14% 11% 12%
x264 [info]: i8c dc,h,v,p: 35% 23% 19% 22%
x264 [info]: Weighted P-Frames: Y:5.0% UV:3.9%
x264 [info]: ref P L0: 60.1% 11.3% 12.8% 4.3% 3.3% 2.7% 2.3% 1.4% 1.6% 0.1% 0.0%
x264 [info]: ref B L0: 81.6% 9.2% 3.5% 1.7% 1.5% 1.1% 1.2% 0.3%
x264 [info]: ref B L1: 96.5% 3.5%
x264 [info]: kb/s:1599.37

encoded 129673 frames, 14.10 fps, 1599.37 kb/s
GeneralComplete name : D:\Torrents\Shrek Collection.2001-2011.BDRip.x264.960x\Shrek.2001.BDRip.x264.960x.rip by Frost O.S.mp4Format : MPEG-4Format profile : Base MediaCodec ID : isom (isom/avc1/iso2)File size : 1.92 GiBDuration : 1 h 30 minOverall bit rate mode : VariableOverall bit rate : 3 051 kb/sMovie name : Shrek 2001 BDRip x264 960x rip by Frost O SGenre : AnimationContentType : Short FilmEncoded date : UTC 2017-02-17 10:31:41Tagged date : UTC 2017-02-17 10:44:38Writing application : MkvToMp4 version: 0.224 (x64)Cover : YesComment : rip by Frost O.S

VideoID : 1Format : AVCFormat/Info : Advanced Video CodecFormat profile : [email protected] settings, CABAC : YesFormat settings, ReFrames : 9 framesCodec ID : avc1Codec ID/Info : Advanced Video CodingDuration : 1 h 30 minBit rate : 1 600 kb/sMaximum bit rate : 7 619 kb/sWidth : 960 pixelsHeight : 540 pixelsDisplay aspect ratio : 16:9Frame rate mode : ConstantFrame rate : 23.976 (24000/1001) FPSOriginal frame rate : 23.976 (23976/1000) FPSColor space : YUVChroma subsampling : 4:2:0Bit depth : 8 bitsScan type : ProgressiveBits/(Pixel*Frame) : 0.129Stream size : 1.01 GiB (52%)Writing library : x264 core 148 r2705 3f5ed56Encoding settings : cabac=1 / ref=9 / deblock=1:-2:-2 / analyse=0x3:0x113 / me=umh / subme=11 / psy=1 / psy_rd=0.80:0.00 / mixed_ref=1 / me_range=32 / chroma_me=1 / trellis=2 / 8x8dct=1 / cqm=0 / deadzone=21,11 / fast_pskip=0 / chroma_qp_offset=-2 / threads=6 / lookahead_threads=1 / sliced_threads=0 / nr=0 / decimate=0 / interlaced=0 / bluray_compat=0 / constrained_intra=0 / bframes=9 / b_pyramid=2 / b_adapt=2 / b_bias=0 / direct=3 / weightb=1 / open_gop=0 / weightp=2 / keyint=250 / keyint_min=23 / scenecut=40 / intra_refresh=0 / rc=2pass / mbtree=0 / bitrate=1600 / ratetol=1.0 / qcomp=0.70 / qpmin=0 / qpmax=69 / qpstep=4 / cplxblur=20.0 / qblur=0.5 / ip_ratio=1.40 / pb_ratio=1.30 / aq=3:0.70Language : EnglishEncoded date : UTC 2017-02-17 10:31:41Tagged date : UTC 2017-02-17 10:33:52Color range : LimitedColor primaries : BT.709Transfer characteristics : BT.709Matrix coefficients : BT.709

Audio #1ID : 2Format : AACFormat/Info : Advanced Audio CodecFormat profile : LCCodec ID : 40Duration : 1 h 30 minBit rate mode : VariableBit rate : 128 kb/sMaximum bit rate : 135 kb/sChannel(s) : 2 channelsChannel positions : Front: L RSampling rate : 48.0 kHzFrame rate : 46.875 FPS (1024 spf)Compression mode : LossyStream size : 82.5 MiB (4%)Title : Dub_ Blu_ray / Dub_ Blu_rayLanguage : RussianDefault : YesAlternate group : 1Encoded date : UTC 2017-02-17 10:32:38Tagged date : UTC 2017-02-17 10:33:52

Audio #2ID : 3Format : AACFormat/Info : Advanced Audio CodecFormat profile : LCCodec ID : 40Duration : 1 h 30 minBit rate mode : VariableBit rate : 128 kb/sMaximum bit rate : 135 kb/sChannel(s) : 2 channelsChannel positions : Front: L RSampling rate : 48.0 kHzFrame rate : 46.875 FPS (1024 spf)Compression mode : LossyStream size : 82.5 MiB (4%)Title : Dub_ 1_1 / Dub_ 1_1Language : UkrainianDefault : NoAlternate group : 1Encoded date : UTC 2017-02-17 10:32:45Tagged date : UTC 2017-02-17 10:33:52

Audio #3ID : 4Format : AACFormat/Info : Advanced Audio CodecFormat profile : LCCodec ID : 40Duration : 1 h 30 minBit rate mode : VariableBit rate : 128 kb/sMaximum bit rate : 135 kb/sChannel(s) : 2 channelsChannel positions : Front: L RSampling rate : 48.0 kHzFrame rate : 46.875 FPS (1024 spf)Compression mode : LossyStream size : 82.5 MiB (4%)Title : MVO_ Superbit / MVO_ SuperbitLanguage : RussianDefault : NoAlternate group : 1Encoded date : UTC 2017-02-17 10:32:52Tagged date : UTC 2017-02-17 10:33:52

Audio #4ID : 5Format : AACFormat/Info : Advanced Audio CodecFormat profile : LCCodec ID : 40Duration : 1 h 30 minBit rate mode : VariableBit rate : 128 kb/sMaximum bit rate : 135 kb/sChannel(s) : 2 channelsChannel positions : Front: L RSampling rate : 48.0 kHzFrame rate : 46.875 FPS (1024 spf)Compression mode : LossyStream size : 82.5 MiB (4%)Title : MVO_ Karusel _1 / MVO_ Karusel _1Language : RussianDefault : NoAlternate group : 1Encoded date : UTC 2017-02-17 10:33:04Tagged date : UTC 2017-02-17 10:33:52

Audio #5ID : 6Format : AACFormat/Info : Advanced Audio CodecFormat profile : LCCodec ID : 40Duration : 1 h 30 minBit rate mode : VariableBit rate : 128 kb/sMaximum bit rate : 135 kb/sChannel(s) : 2 channelsChannel positions : Front: L RSampling rate : 48.0 kHzFrame rate : 46.875 FPS (1024 spf)Compression mode : LossyStream size : 82.5 MiB (4%)Title : MVO_ Kinomaniya_ Karusel _2 / MVO_ Kinomaniya_ Karusel _2Language : RussianDefault : NoAlternate group : 1Encoded date : UTC 2017-02-17 10:33:10Tagged date : UTC 2017-02-17 10:33:52

Audio #6ID : 7Format : AACFormat/Info : Advanced Audio CodecFormat profile : LCCodec ID : 40Duration : 1 h 30 minBit rate mode : VariableBit rate : 128 kb/sMaximum bit rate : 135 kb/sChannel(s) : 2 channelsChannel positions : Front: L RSampling rate : 48.0 kHzFrame rate : 46.875 FPS (1024 spf)Compression mode : LossyStream size : 82.5 MiB (4%)Title : MVO_ Novui Kanal / MVO_ Novui KanalLanguage : UkrainianDefault : NoAlternate group : 1Encoded date : UTC 2017-02-17 10:33:16Tagged date : UTC 2017-02-17 10:33:52

Audio #7ID : 8Format : AACFormat/Info : Advanced Audio CodecFormat profile : LCCodec ID : 40Duration : 1 h 30 minBit rate mode : VariableBit rate : 128 kb/sMaximum bit rate : 135 kb/sChannel(s) : 2 channelsChannel positions : Front: L RSampling rate : 48.0 kHzFrame rate : 46.875 FPS (1024 spf)Compression mode : LossyStream size : 82.5 MiB (4%)Title : VO_ Goblin / VO_ GoblinLanguage : RussianDefault : NoAlternate group : 1Encoded date : UTC 2017-02-17 10:33:21Tagged date : UTC 2017-02-17 10:33:52

Audio #8ID : 9Format : AACFormat/Info : Advanced Audio CodecFormat profile : LCCodec ID : 40Duration : 1 h 30 minBit rate mode : VariableBit rate : 128 kb/sMaximum bit rate : 135 kb/sChannel(s) : 2 channelsChannel positions : Front: L RSampling rate : 48.0 kHzFrame rate : 46.875 FPS (1024 spf)Compression mode : LossyStream size : 82.5 MiB (4%)Title : VO_ Glanz / VO_ GlanzLanguage : RussianDefault : NoAlternate group : 1Encoded date : UTC 2017-02-17 10:33:27Tagged date : UTC 2017-02-17 10:33:52

Audio #9ID : 10Format : AACFormat/Info : Advanced Audio CodecFormat profile : LCCodec ID : 40Duration : 1 h 30 minBit rate mode : VariableBit rate : 128 kb/sMaximum bit rate : 135 kb/sChannel(s) : 2 channelsChannel positions : Front: L RSampling rate : 48.0 kHzFrame rate : 46.875 FPS (1024 spf)Compression mode : LossyStream size : 82.5 MiB (4%)Title : VO_ Gavrilov / VO_ GavrilovLanguage : RussianDefault : NoAlternate group : 1Encoded date : UTC 2017-02-17 10:33:33Tagged date : UTC 2017-02-17 10:33:52

Audio #10ID : 11Format : AACFormat/Info : Advanced Audio CodecFormat profile : LCCodec ID : 40Duration : 1 h 30 minBit rate mode : VariableBit rate : 128 kb/sMaximum bit rate : 135 kb/sChannel(s) : 2 channelsChannel positions : Front: L RSampling rate : 48.0 kHzFrame rate : 46.875 FPS (1024 spf)Compression mode : LossyStream size : 82.5 MiB (4%)Title : VO_ Vizgunov / VO_ VizgunovLanguage : RussianDefault : NoAlternate group : 1Encoded date : UTC 2017-02-17 10:33:39Tagged date : UTC 2017-02-17 10:33:52

Audio #11ID : 12Format : AACFormat/Info : Advanced Audio CodecFormat profile : LCCodec ID : 40Duration : 1 h 30 minBit rate mode : VariableBit rate : 128 kb/sMaximum bit rate : 135 kb/sChannel(s) : 2 channelsChannel positions : Front: L RSampling rate : 48.0 kHzFrame rate : 46.875 FPS (1024 spf)Compression mode : LossyStream size : 82.5 MiB (4%)Title : Original / OriginalLanguage : EnglishDefault : NoAlternate group : 1Encoded date : UTC 2017-02-17 10:33:45Tagged date : UTC 2017-02-17 10:33:52

Text #1ID : 13Format : Timed TextMuxing mode : sbtlCodec ID : tx3gDuration : 1 h 30 minBit rate mode : VariableBit rate : 86 b/sStream size : 56.6 KiB (0%)Title : Full / FullLanguage : RussianDefault : YesForced : NoAlternate group : 2Encoded date : UTC 2017-02-17 10:33:51Tagged date : UTC 2017-02-17 10:33:52

Text #2ID : 14Format : Timed TextMuxing mode : sbtlCodec ID : tx3gDuration : 1 h 29 minBit rate mode : VariableBit rate : 151 b/sStream size : 99.1 KiB (0%)Title : Kinomania _SDH_ / Kinomania _SDH_Language : RussianDefault : NoForced : NoAlternate group : 2Encoded date : UTC 2017-02-17 10:33:51Tagged date : UTC 2017-02-17 10:33:52

Text #3ID : 15Format : Timed TextMuxing mode : sbtlCodec ID : tx3gDuration : 1 h 30 minBit rate mode : VariableBit rate : 102 b/sStream size : 67.4 KiB (0%)Language : UkrainianDefault : NoForced : NoAlternate group : 2Encoded date : UTC 2017-02-17 10:33:51Tagged date : UTC 2017-02-17 10:33:52

Text #4ID : 16Format : Timed TextMuxing mode : sbtlCodec ID : tx3gDuration : 1 h 23 minBit rate mode : VariableBit rate : 71 b/sStream size : 43.2 KiB (0%)Language : EnglishDefault : NoForced : NoAlternate group : 2Encoded date : UTC 2017-02-17 10:33:52Tagged date : UTC 2017-02-17 10:33:52
<span class="post-font-serif1">Шрек 2 / Shrek 2</span>


<span class="post-font-serif1">Год выпуска: 2004
Страна: США
Жанр: комедия, приключения, семейный, мультфильм
Продолжительность: 01:32:23
Перевод №1: Профессиональный (полное дублирование) Blu-ray CEE
Перевод №2: Профессиональный (многоголосый, закадровый) Киномания
Перевод №3: Профессиональный (многоголосый, закадровый) Новый Канал
Перевод №4: Профессиональный (двухголосый, закадровый) Tycoon-Studio
Перевод №5: Профессиональный (двухголосый, закадровый) П.Гланц, И.Королёва
Перевод №6: Авторский (одноголосый, закадровый) А.Гаврилов
Перевод №7: Авторский (одноголосый, закадровый) Дмитрий «Гоблин» Пучков, финальная версия
Перевод №8: Авторский (одноголосый, закадровый) Дмитрий «Гоблин» Пучков, кот говорит с грузинским акцентом
Перевод №9: Авторский (одноголосый, закадровый) Дмитрий «Гоблин» Пучков, вставки эстрадных песен
Оригинальная дорожка: Есть
Cубтитры: русские, украинские, английские</span>
<span class="post-font-serif1">Режиссер: Эндрю Адамсон / Andrew Adamson, Келли Эсбёри / Kelly Asbury, Конрад Вернон / Conrad Vernon</span>
<span class="post-font-serif1">В ролях: Майк Майерс, Эдди Мёрфи, Кэмерон Диаз, Джули Эндрюс, Антонио Бандерас, Джон Клиз, Руперт Эверет, Дженнифер Сoндерс, Арон Уорнер, Келли Эсбёри и другие .</span>
<span class="post-font-serif1">Описание: Шрэк и Фиона возвращаются после медового месяца и находят письмо от родителей Фионы с приглашением на ужин.
Однако те не подозревают, что их дочь тоже стала троллем!

Вместе с Осликом счастливая пара отправляется в путешествие, полное неожиданностей, и попадает в круговорот событий, во время которых приобретает множество друзей…</span>
<span class="post-font-serif1">Релиз группы </span>
<span class="post-font-serif1">Качество: BDRip / рип с Blu-ray Disc 1080p CEE
Формат: MP4
Видео кодек: H.264
Аудио кодек: AAC
Видео: 960x540 AR:16/9 1740 kbps 23.976 fps
Аудио №1: [Russian] 2ch 48 kHz 128 kbps - [Dub] Профессиональный (полное дублирование) Blu-ray CEE
Аудио №2: [Russian] 2ch 48 kHz 128 kbps - [MVO] Профессиональный (многоголосый, закадровый) Киномания
Аудио №3: [Ukrainian] 2ch 48 kHz 128 kbps - [MVO] Профессиональный (многоголосый, закадровый) Новый Канал
Аудио №4: [Russian] 2ch 48 kHz 128 kbps - [DVO] Профессиональный (двухголосый, закадровый) Tycoon-Studio
Аудио №5: [Russian] 2ch 48 kHz 128 kbps - [DVO] Профессиональный (двухголосый, закадровый) П.Гланц, И.Королёва
Аудио №6: [Russian] 2ch 48 kHz 128 kbps - [VO] Авторский (одноголосый, закадровый) А.Гаврилов
Аудио №7: [Russian] 2ch 48 kHz 128 kbps - [VO] Авторский (одноголосый, закадровый) Дмитрий «Гоблин» Пучков, финальная версия
Аудио №8: [Russian] 2ch 48 kHz 128 kbps - [VO] Авторский (одноголосый, закадровый) Дмитрий «Гоблин» Пучков, кот говорит с грузинским акцентом
Аудио №9: [Russian] 2ch 48 kHz 128 kbps - [VO] Авторский (одноголосый, закадровый) Дмитрий «Гоблин» Пучков, вставки эстрадных песен
Аудио №10: [English] 2ch 48 kHz 128 kbps - Оригинал</span>
avs [info]: 960x540p 1:1 @ 2997/125 fps (cfr)
x264 [info]: using SAR=1/1
x264 [info]: using cpu capabilities: MMX2 SSE2Fast SSSE3 SSE4.2 AVX FMA3 AVX2 LZCNT BMI2
x264 [info]: profile High, level 4.1

x264 [info]: frame I:1271 Avg QP:14.52 size: 80800
x264 [info]: frame P:34229 Avg QP:18.79 size: 17783
x264 [info]: frame B:97407 Avg QP:20.63 size: 5072
x264 [info]: consecutive B-frames: 3.4% 3.9% 20.5% 23.4% 21.5% 22.3% 2.8% 2.3%
x264 [info]: mb I I16..4: 6.3% 72.4% 21.3%
x264 [info]: mb P I16..4: 0.9% 8.6% 1.5% P16..4: 27.5% 27.9% 10.4% 0.0% 0.0% skip:23.3%
x264 [info]: mb B I16..4: 0.1% 0.9% 0.1% B16..8: 24.3% 13.5% 2.5% direct: 3.4% skip:55.1% L0:39.6% L1:44.3% BI:16.1%
x264 [info]: 8x8 transform intra:76.7% inter:52.8%
x264 [info]: direct mvs spatial:94.4% temporal:5.6%
x264 [info]: coded y,uvDC,uvAC intra: 84.5% 85.0% 63.4% inter: 14.6% 11.8% 6.1%
x264 [info]: i16 v,h,dc,p: 22% 15% 7% 55%
x264 [info]: i8 v,h,dc,ddl,ddr,vr,hd,vl,hu: 10% 10% 7% 9% 12% 12% 13% 12% 15%
x264 [info]: i4 v,h,dc,ddl,ddr,vr,hd,vl,hu: 12% 11% 7% 8% 14% 13% 13% 10% 13%
x264 [info]: i8c dc,h,v,p: 36% 26% 19% 19%
x264 [info]: Weighted P-Frames: Y:5.5% UV:3.8%
x264 [info]: ref P L0: 59.4% 9.7% 14.1% 5.5% 4.4% 3.6% 3.1% 0.2% 0.0%
x264 [info]: ref B L0: 78.1% 9.9% 6.1% 3.0% 2.2% 0.7%
x264 [info]: ref B L1: 95.2% 4.8%
x264 [info]: kb/s:1739.61

encoded 132907 frames, 14.82 fps, 1739.61 kb/s
GeneralComplete name : D:\Torrents\Shrek Collection.2001-2011.BDRip.x264.960x\Shrek 2.2004.BDRip.x264.960x.rip by Frost O.S.mp4Format : MPEG-4Format profile : Base MediaCodec ID : isom (isom/avc1/iso2)File size : 1.97 GiBDuration : 1 h 32 minOverall bit rate mode : VariableOverall bit rate : 3 060 kb/sMovie name : Shrek 2 2004 BDRip x264 960x rip by Frost O SGenre : AnimationContentType : Short FilmEncoded date : UTC 2017-02-17 11:19:09Tagged date : UTC 2017-02-17 11:24:46Writing application : MkvToMp4 version: 0.224 (x64)Cover : YesComment : rip by Frost O.S

VideoID : 1Format : AVCFormat/Info : Advanced Video CodecFormat profile : [email protected] settings, CABAC : YesFormat settings, ReFrames : 7 framesCodec ID : avc1Codec ID/Info : Advanced Video CodingDuration : 1 h 32 minBit rate : 1 740 kb/sMaximum bit rate : 8 434 kb/sWidth : 960 pixelsHeight : 540 pixelsDisplay aspect ratio : 16:9Frame rate mode : ConstantFrame rate : 23.976 (24000/1001) FPSOriginal frame rate : 23.976 (23976/1000) FPSColor space : YUVChroma subsampling : 4:2:0Bit depth : 8 bitsScan type : ProgressiveBits/(Pixel*Frame) : 0.140Stream size : 1.12 GiB (57%)Writing library : x264 core 148 r2705 3f5ed56Encoding settings : cabac=1 / ref=7 / deblock=1:-2:-2 / analyse=0x3:0x113 / me=umh / subme=11 / psy=1 / psy_rd=0.85:0.00 / mixed_ref=1 / me_range=32 / chroma_me=1 / trellis=2 / 8x8dct=1 / cqm=0 / deadzone=21,11 / fast_pskip=0 / chroma_qp_offset=-2 / threads=6 / lookahead_threads=1 / sliced_threads=0 / nr=0 / decimate=0 / interlaced=0 / bluray_compat=0 / constrained_intra=0 / bframes=7 / b_pyramid=2 / b_adapt=2 / b_bias=0 / direct=3 / weightb=1 / open_gop=0 / weightp=2 / keyint=250 / keyint_min=23 / scenecut=40 / intra_refresh=0 / rc=2pass / mbtree=0 / bitrate=1740 / ratetol=1.0 / qcomp=0.70 / qpmin=0 / qpmax=69 / qpstep=4 / cplxblur=20.0 / qblur=0.5 / ip_ratio=1.40 / pb_ratio=1.30 / aq=3:0.80Language : EnglishEncoded date : UTC 2017-02-17 11:19:09Tagged date : UTC 2017-02-17 11:21:06Color range : LimitedColor primaries : BT.709Transfer characteristics : BT.709Matrix coefficients : BT.709

Audio #1ID : 2Format : AACFormat/Info : Advanced Audio CodecFormat profile : LCCodec ID : 40Duration : 1 h 32 minBit rate mode : VariableBit rate : 128 kb/sMaximum bit rate : 135 kb/sChannel(s) : 2 channelsChannel positions : Front: L RSampling rate : 48.0 kHzFrame rate : 46.875 FPS (1024 spf)Compression mode : LossyStream size : 84.6 MiB (4%)Title : Dub_ Blu_ray / Dub_ Blu_rayLanguage : RussianDefault : YesAlternate group : 1Encoded date : UTC 2017-02-17 11:20:08Tagged date : UTC 2017-02-17 11:21:06

Audio #2ID : 3Format : AACFormat/Info : Advanced Audio CodecFormat profile : LCCodec ID : 40Duration : 1 h 32 minBit rate mode : VariableBit rate : 128 kb/sMaximum bit rate : 135 kb/sChannel(s) : 2 channelsChannel positions : Front: L RSampling rate : 48.0 kHzFrame rate : 46.875 FPS (1024 spf)Compression mode : LossyStream size : 84.6 MiB (4%)Title : MVO_ Kinomaniya / MVO_ KinomaniyaLanguage : RussianDefault : NoAlternate group : 1Encoded date : UTC 2017-02-17 11:20:15Tagged date : UTC 2017-02-17 11:21:06

Audio #3ID : 4Format : AACFormat/Info : Advanced Audio CodecFormat profile : LCCodec ID : 40Duration : 1 h 32 minBit rate mode : VariableBit rate : 128 kb/sMaximum bit rate : 135 kb/sChannel(s) : 2 channelsChannel positions : Front: L RSampling rate : 48.0 kHzFrame rate : 46.875 FPS (1024 spf)Compression mode : LossyStream size : 84.6 MiB (4%)Title : MVO_ Novui Kanal / MVO_ Novui KanalLanguage : UkrainianDefault : NoAlternate group : 1Encoded date : UTC 2017-02-17 11:20:20Tagged date : UTC 2017-02-17 11:21:06

Audio #4ID : 5Format : AACFormat/Info : Advanced Audio CodecFormat profile : LCCodec ID : 40Duration : 1 h 32 minBit rate mode : VariableBit rate : 128 kb/sMaximum bit rate : 135 kb/sChannel(s) : 2 channelsChannel positions : Front: L RSampling rate : 48.0 kHzFrame rate : 46.875 FPS (1024 spf)Compression mode : LossyStream size : 84.6 MiB (4%)Title : DVO_ Tycoon_Studio / DVO_ Tycoon_StudioLanguage : RussianDefault : NoAlternate group : 1Encoded date : UTC 2017-02-17 11:20:26Tagged date : UTC 2017-02-17 11:21:06

Audio #5ID : 6Format : AACFormat/Info : Advanced Audio CodecFormat profile : LCCodec ID : 40Duration : 1 h 32 minBit rate mode : VariableBit rate : 128 kb/sMaximum bit rate : 135 kb/sChannel(s) : 2 channelsChannel positions : Front: L RSampling rate : 48.0 kHzFrame rate : 46.875 FPS (1024 spf)Compression mode : LossyStream size : 84.6 MiB (4%)Title : DVO_ Glanz_Koroleva / DVO_ Glanz_KorolevaLanguage : RussianDefault : NoAlternate group : 1Encoded date : UTC 2017-02-17 11:20:30Tagged date : UTC 2017-02-17 11:21:06

Audio #6ID : 7Format : AACFormat/Info : Advanced Audio CodecFormat profile : LCCodec ID : 40Duration : 1 h 32 minBit rate mode : VariableBit rate : 128 kb/sMaximum bit rate : 134 kb/sChannel(s) : 2 channelsChannel positions : Front: L RSampling rate : 48.0 kHzFrame rate : 46.875 FPS (1024 spf)Compression mode : LossyStream size : 84.6 MiB (4%)Title : VO_ Gavrilov / VO_ GavrilovLanguage : RussianDefault : NoAlternate group : 1Encoded date : UTC 2017-02-17 11:20:35Tagged date : UTC 2017-02-17 11:21:06

Audio #7ID : 8Format : AACFormat/Info : Advanced Audio CodecFormat profile : LCCodec ID : 40Duration : 1 h 32 minBit rate mode : VariableBit rate : 128 kb/sMaximum bit rate : 135 kb/sChannel(s) : 2 channelsChannel positions : Front: L RSampling rate : 48.0 kHzFrame rate : 46.875 FPS (1024 spf)Compression mode : LossyStream size : 84.6 MiB (4%)Title : VO_ Goblin _1 / VO_ Goblin _1Language : RussianDefault : NoAlternate group : 1Encoded date : UTC 2017-02-17 11:20:39Tagged date : UTC 2017-02-17 11:21:06

Audio #8ID : 9Format : AACFormat/Info : Advanced Audio CodecFormat profile : LCCodec ID : 40Duration : 1 h 32 minBit rate mode : VariableBit rate : 128 kb/sMaximum bit rate : 135 kb/sChannel(s) : 2 channelsChannel positions : Front: L RSampling rate : 48.0 kHzFrame rate : 46.875 FPS (1024 spf)Compression mode : LossyStream size : 84.6 MiB (4%)Title : VO_ Goblin _2 / VO_ Goblin _2Language : RussianDefault : NoAlternate group : 1Encoded date : UTC 2017-02-17 11:20:44Tagged date : UTC 2017-02-17 11:21:06

Audio #9ID : 10Format : AACFormat/Info : Advanced Audio CodecFormat profile : LCCodec ID : 40Duration : 1 h 32 minBit rate mode : VariableBit rate : 128 kb/sMaximum bit rate : 135 kb/sChannel(s) : 2 channelsChannel positions : Front: L RSampling rate : 48.0 kHzFrame rate : 46.875 FPS (1024 spf)Compression mode : LossyStream size : 84.6 MiB (4%)Title : VO_ Goblin _3 / VO_ Goblin _3Language : RussianDefault : NoAlternate group : 1Encoded date : UTC 2017-02-17 11:20:54Tagged date : UTC 2017-02-17 11:21:06

Audio #10ID : 11Format : AACFormat/Info : Advanced Audio CodecFormat profile : LCCodec ID : 40Duration : 1 h 32 minBit rate mode : VariableBit rate : 128 kb/sMaximum bit rate : 135 kb/sChannel(s) : 2 channelsChannel positions : Front: L RSampling rate : 48.0 kHzFrame rate : 46.875 FPS (1024 spf)Compression mode : LossyStream size : 84.6 MiB (4%)Title : Original / OriginalLanguage : EnglishDefault : NoAlternate group : 1Encoded date : UTC 2017-02-17 11:21:00Tagged date : UTC 2017-02-17 11:21:06

Text #1ID : 12Format : Timed TextMuxing mode : sbtlCodec ID : tx3gDuration : 1 h 32 minBit rate mode : VariableBit rate : 99 b/sStream size : 67.0 KiB (0%)Title : Blu_ray CEE / Blu_ray CEELanguage : RussianDefault : YesForced : NoAlternate group : 2Encoded date : UTC 2017-02-17 11:21:06Tagged date : UTC 2017-02-17 11:21:06

Text #2ID : 13Format : Timed TextMuxing mode : sbtlCodec ID : tx3gDuration : 1 h 32 minBit rate mode : VariableBit rate : 94 b/sStream size : 63.3 KiB (0%)Title : Blu_ray CEE / Blu_ray CEELanguage : UkrainianDefault : NoForced : NoAlternate group : 2Encoded date : UTC 2017-02-17 11:21:06Tagged date : UTC 2017-02-17 11:21:06

Text #3ID : 14Format : Timed TextMuxing mode : sbtlCodec ID : tx3gDuration : 1 h 25 minBit rate mode : VariableBit rate : 61 b/sStream size : 38.2 KiB (0%)Title : Blu_ray CEE / Blu_ray CEELanguage : EnglishDefault : NoForced : NoAlternate group : 2Encoded date : UTC 2017-02-17 11:21:06Tagged date : UTC 2017-02-17 11:21:06
<span class="post-font-serif1">Шрек 3 / Шрек Третий / Shrek the Third</span>


<span class="post-font-serif1">Год выпуска: 2007
Страна: США
Жанр: комедия, приключения, семейный, мультфильм
Продолжительность: 01:32:47
Перевод №1: Профессиональный (полное дублирование) Blu-ray CEE
Перевод №2: Профессиональный (полное дублирование) Blu-ray CEE
Перевод №3: Авторский (двухголосый закадровый) П.Гланц, И.Королёва
Перевод №4:Авторский (одноголосый закадровый) А.Гаврилов
Перевод №5: Авторский (одноголосый закадровый) В.Королёв
Оригинальная дорожка: Есть
Cубтитры: русские, украинские, английские</span>
<span class="post-font-serif1">Режиссеры: Крис Миллер / Chris Miller, Раман Хуи / Raman Hui</span>
<span class="post-font-serif1">В ролях: Майк Майерс, Эдди Мёрфи, Кэмерон Диаз, Антонио Бандерас, Джули Эндрюс, Джон Клиз, Руперт Эверет, Эрик Айдл, Джастин Тимберлэйк, Сьюзан Блэйксли и другие .</span>
<span class="post-font-serif1">Описание: Королем может быть не каждый — особенно если вы не очень симпатичный великан.
Когда Шрэк женился на принцессе Фионе, он меньше всего на свете хотел управлять Далекой-Далекой страной. Такой он невластолюбивый.
Однако отец Фионы, король Гарольд, внезапно умирает, и корону должен унаследовать именно Шрэк. Как-никак, он все-таки муж наследницы.

Однако Шрэк наотрез отказывается от бремени власти, и решает отправиться вместе со своими старыми друзьями Ослом и Котом в сапогах на поиски кандидата на трон.
Если Шрэк не найдет себе подходящей замены, ему придется управлять сказочной страной самому… и это надолго. Похоже, что король Артур — тот, кто им нужен.

Однако в отсутствие великана его старый враг принц по имени Чарминг замышляет всякие пакости, для чего и возвращается в сказочную страну.
Шрэку придется очень постараться, чтобы спасти страну от происков врагов и от возможного переворота.</span>
<span class="post-font-serif1">Релиз группы </span>
<span class="post-font-serif1">Качество: BDRip / рип с Blu-ray Disc 1080p CEE
Формат: MP4
Видео кодек: H.264
Аудио кодек: AAC
Видео: 960x540 AR:16/9 1461 kbps 23.976 fps
Аудио №1: [Russian] 2ch 48 kHz 128 kbps - [Dub] Профессиональный (полное дублирование) Blu-ray CEE
Аудио №2: [Ukrainian] 2ch 48 kHz 128 kbps - [Dub] Профессиональный (полное дублирование) Blu-ray CEE
Аудио №3: [Russian] 2ch 48 kHz 128 kbps - [DVO] Профессиональный (двухголосый, закадровый) П.Гланц, И.Королёва
Аудио №4: [Russian] 2ch 48 kHz 128 kbps - [VO] Авторский (одноголосый, закадровый) А.Гаврилов
Аудио №5: [Russian] 2ch 48 kHz 128 kbps - [VO] Авторский (одноголосый, закадровый) В.Королёв
Аудио №6: [English] 2ch 48 kHz 128 kbps - Оригинал</span>
avs [info]: 960x540p 1:1 @ 2997/125 fps (cfr)
x264 [info]: using SAR=1/1
x264 [info]: using cpu capabilities: MMX2 SSE2Fast SSSE3 SSE4.2 AVX FMA3 AVX2 LZCNT BMI2
x264 [info]: profile High, level 4.1

x264 [info]: frame I:1302 Avg QP:15.46 size: 78376
x264 [info]: frame P:36731 Avg QP:19.53 size: 14958
x264 [info]: frame B:95420 Avg QP:21.52 size: 3826
x264 [info]: consecutive B-frames: 3.4% 5.9% 8.8% 64.5% 7.8% 8.5% 0.8% 0.4%
x264 [info]: mb I I16..4: 4.4% 72.1% 23.5%
x264 [info]: mb P I16..4: 1.0% 7.0% 1.2% P16..4: 26.6% 26.3% 10.1% 0.0% 0.0% skip:27.9%
x264 [info]: mb B I16..4: 0.2% 0.8% 0.1% B16..8: 22.8% 11.6% 2.3% direct: 2.6% skip:59.7% L0:36.9% L1:48.0% BI:15.1%
x264 [info]: 8x8 transform intra:74.9% inter:53.0%
x264 [info]: direct mvs spatial:94.2% temporal:5.8%
x264 [info]: coded y,uvDC,uvAC intra: 79.3% 81.6% 56.5% inter: 11.6% 9.3% 4.8%
x264 [info]: i16 v,h,dc,p: 16% 15% 9% 60%
x264 [info]: i8 v,h,dc,ddl,ddr,vr,hd,vl,hu: 10% 9% 8% 9% 12% 12% 13% 12% 15%
x264 [info]: i4 v,h,dc,ddl,ddr,vr,hd,vl,hu: 13% 9% 11% 8% 13% 12% 12% 10% 12%
x264 [info]: i8c dc,h,v,p: 35% 27% 18% 19%
x264 [info]: Weighted P-Frames: Y:4.7% UV:2.9%
x264 [info]: ref P L0: 58.1% 9.7% 12.0% 5.6% 4.0% 3.4% 2.3% 1.7% 1.5% 1.6% 0.1% 0.0%
x264 [info]: ref B L0: 83.1% 6.5% 3.3% 1.9% 2.4% 1.0% 0.8% 0.5% 0.5%
x264 [info]: ref B L1: 96.0% 4.0%
x264 [info]: kb/s:1461.02

encoded 133453 frames, 14.34 fps, 1461.02 kb/s
GeneralComplete name : D:\Torrents\Shrek Collection.2001-2011.BDRip.x264.960x\Shrek the Third.2007.BDRip.x264.960x.rip by Frost O.S.mp4Format : MPEG-4Format profile : Base MediaCodec ID : isom (isom/avc1/iso2)File size : 1.46 GiBDuration : 1 h 32 minOverall bit rate mode : VariableOverall bit rate : 2 255 kb/sMovie name : Shrek the Third 2007 BDRip x264 960x rip by Frost O SGenre : AnimationContentType : Short FilmEncoded date : UTC 2017-02-17 21:03:37Tagged date : UTC 2017-02-17 21:07:50Writing application : MkvToMp4 version: 0.224 (x64)Cover : YesComment : rip by Frost O.S

VideoID : 1Format : AVCFormat/Info : Advanced Video CodecFormat profile : [email protected] settings, CABAC : YesFormat settings, ReFrames : 10 framesCodec ID : avc1Codec ID/Info : Advanced Video CodingDuration : 1 h 32 minBit rate : 1 461 kb/sMaximum bit rate : 6 237 kb/sWidth : 960 pixelsHeight : 540 pixelsDisplay aspect ratio : 16:9Frame rate mode : ConstantFrame rate : 23.976 (24000/1001) FPSOriginal frame rate : 23.976 (23976/1000) FPSColor space : YUVChroma subsampling : 4:2:0Bit depth : 8 bitsScan type : ProgressiveBits/(Pixel*Frame) : 0.118Stream size : 969 MiB (65%)Writing library : x264 core 148 r2705 3f5ed56Encoding settings : cabac=1 / ref=10 / deblock=1:-2:-2 / analyse=0x3:0x113 / me=umh / subme=11 / psy=1 / psy_rd=0.80:0.00 / mixed_ref=1 / me_range=32 / chroma_me=1 / trellis=2 / 8x8dct=1 / cqm=0 / deadzone=21,11 / fast_pskip=0 / chroma_qp_offset=-2 / threads=6 / lookahead_threads=1 / sliced_threads=0 / nr=0 / decimate=0 / interlaced=0 / bluray_compat=0 / constrained_intra=0 / bframes=7 / b_pyramid=2 / b_adapt=2 / b_bias=0 / direct=3 / weightb=1 / open_gop=0 / weightp=2 / keyint=250 / keyint_min=23 / scenecut=40 / intra_refresh=0 / rc=2pass / mbtree=0 / bitrate=1461 / ratetol=1.0 / qcomp=0.70 / qpmin=0 / qpmax=69 / qpstep=4 / cplxblur=20.0 / qblur=0.5 / ip_ratio=1.40 / pb_ratio=1.30 / aq=3:0.70Language : EnglishEncoded date : UTC 2017-02-17 21:03:37Tagged date : UTC 2017-02-17 21:04:25Color range : LimitedColor primaries : BT.709Transfer characteristics : BT.709Matrix coefficients : BT.709

Audio #1ID : 2Format : AACFormat/Info : Advanced Audio CodecFormat profile : LCCodec ID : 40Duration : 1 h 32 minBit rate mode : VariableBit rate : 128 kb/sMaximum bit rate : 135 kb/sChannel(s) : 2 channelsChannel positions : Front: L RSampling rate : 48.0 kHzFrame rate : 46.875 FPS (1024 spf)Compression mode : LossyStream size : 84.9 MiB (6%)Title : Dub_ Blu_ray CEE / Dub_ Blu_ray CEELanguage : RussianDefault : YesAlternate group : 1Encoded date : UTC 2017-02-17 21:04:06Tagged date : UTC 2017-02-17 21:04:25

Audio #2ID : 3Format : AACFormat/Info : Advanced Audio CodecFormat profile : LCCodec ID : 40Duration : 1 h 32 minBit rate mode : VariableBit rate : 128 kb/sMaximum bit rate : 135 kb/sChannel(s) : 2 channelsChannel positions : Front: L RSampling rate : 48.0 kHzFrame rate : 46.875 FPS (1024 spf)Compression mode : LossyStream size : 84.9 MiB (6%)Title : Dub_ Blu_ray CEE / Dub_ Blu_ray CEELanguage : UkrainianDefault : NoAlternate group : 1Encoded date : UTC 2017-02-17 21:04:09Tagged date : UTC 2017-02-17 21:04:25

Audio #3ID : 4Format : AACFormat/Info : Advanced Audio CodecFormat profile : LCCodec ID : 40Duration : 1 h 32 minBit rate mode : VariableBit rate : 128 kb/sMaximum bit rate : 135 kb/sChannel(s) : 2 channelsChannel positions : Front: L RSampling rate : 48.0 kHzFrame rate : 46.875 FPS (1024 spf)Compression mode : LossyStream size : 84.9 MiB (6%)Title : DVO_ Glanz_Koroleva / DVO_ Glanz_KorolevaLanguage : RussianDefault : NoAlternate group : 1Encoded date : UTC 2017-02-17 21:04:11Tagged date : UTC 2017-02-17 21:04:25

Audio #4ID : 5Format : AACFormat/Info : Advanced Audio CodecFormat profile : LCCodec ID : 40Duration : 1 h 32 minBit rate mode : VariableBit rate : 128 kb/sMaximum bit rate : 135 kb/sChannel(s) : 2 channelsChannel positions : Front: L RSampling rate : 48.0 kHzFrame rate : 46.875 FPS (1024 spf)Compression mode : LossyStream size : 84.9 MiB (6%)Title : VO_ Gavrilov / VO_ GavrilovLanguage : RussianDefault : NoAlternate group : 1Encoded date : UTC 2017-02-17 21:04:15Tagged date : UTC 2017-02-17 21:04:25

Audio #5ID : 6Format : AACFormat/Info : Advanced Audio CodecFormat profile : LCCodec ID : 40Duration : 1 h 32 minBit rate mode : VariableBit rate : 128 kb/sMaximum bit rate : 134 kb/sChannel(s) : 2 channelsChannel positions : Front: L RSampling rate : 48.0 kHzFrame rate : 46.875 FPS (1024 spf)Compression mode : LossyStream size : 84.9 MiB (6%)Title : VO_ Korolev / VO_ KorolevLanguage : RussianDefault : NoAlternate group : 1Encoded date : UTC 2017-02-17 21:04:17Tagged date : UTC 2017-02-17 21:04:25

Audio #6ID : 7Format : AACFormat/Info : Advanced Audio CodecFormat profile : LCCodec ID : 40Duration : 1 h 32 minBit rate mode : VariableBit rate : 128 kb/sMaximum bit rate : 134 kb/sChannel(s) : 2 channelsChannel positions : Front: L RSampling rate : 48.0 kHzFrame rate : 46.875 FPS (1024 spf)Compression mode : LossyStream size : 84.9 MiB (6%)Title : Original / OriginalLanguage : EnglishDefault : NoAlternate group : 1Encoded date : UTC 2017-02-17 21:04:21Tagged date : UTC 2017-02-17 21:04:25

Text #1ID : 8Format : Timed TextMuxing mode : sbtlCodec ID : tx3gDuration : 1 h 32 minBit rate mode : VariableBit rate : 89 b/sStream size : 60.7 KiB (0%)Title : Blu_ray CEE / Blu_ray CEELanguage : RussianDefault : YesForced : NoAlternate group : 2Encoded date : UTC 2017-02-17 21:04:24Tagged date : UTC 2017-02-17 21:04:25

Text #2ID : 9Format : Timed TextMuxing mode : sbtlCodec ID : tx3gDuration : 1 h 32 minBit rate mode : VariableBit rate : 86 b/sStream size : 58.5 KiB (0%)Title : Blu_ray CEE / Blu_ray CEELanguage : UkrainianDefault : NoForced : NoAlternate group : 2Encoded date : UTC 2017-02-17 21:04:24Tagged date : UTC 2017-02-17 21:04:25

Text #3ID : 10Format : Timed TextMuxing mode : sbtlCodec ID : tx3gDuration : 1 h 25 minBit rate mode : VariableBit rate : 61 b/sStream size : 38.2 KiB (0%)Title : Blu_ray CEE / Blu_ray CEELanguage : EnglishDefault : NoForced : NoAlternate group : 2Encoded date : UTC 2017-02-17 21:04:24Tagged date : UTC 2017-02-17 21:04:25
<span class="post-font-serif1">Шрек навсегда / Shrek Forever After</span>


<span class="post-font-serif1">Год выпуска: 2010
Страна: США
Жанр: фэнтези, комедия, приключения, семейный, мультфильм
Продолжительность: 01:33:10
Перевод №1: Профессиональный (полное дублирование) Blu-ray CEE
Перевод №2: Профессиональный (полное дублирование) Blu-ray CEE
Оригинальная дорожка: Есть
Cубтитры: русские, украинские, английские</span>
<span class="post-font-serif1">Режиссер: Майк Митчел / Mike Mitchell</span>
<span class="post-font-serif1">В ролях: Майк Майерс, Эдди Мёрфи, Кэмерон Диаз, Антонио Бандерас, Джули Эндрюс, Джон Хэмм, Джон Клиз, Крэйг Робинсон, Уолт Дорн, Джейн Линч и другие .</span>
<span class="post-font-serif1">Описание: Чем бы еще заняться огру, который уже сразился со злым драконом, спас прекрасную принцессу и уберег от беды королевство родственников по линии жены? Что ж, если вы Шрэк, то, сами того не заметив, вы вдруг сядете дома и станете наслаждаться покоем в кругу семьи. Вместо того чтобы как раньше пугать деревенских жителей, теперь Шрэк, хоть и с неохотой, но соглашается оставлять автографы на их вилах. А куда же подевался знаменитый рык этого огра?

Под грузом воспоминаний о днях, когда он чувствовал себя «настоящим огром», Шрэк поддается на уговоры сладкоголосого Румпельштильцхена и заключает с ним договор. Сразу после этого Шрэк оказывается в альтернативной реальности Тридевятого королевства, где все поставлено с ног на голову: на огров здесь охотятся, Румпельштильцхен восседает на троне, а Шрэк и Фиона даже не знакомы. И теперь только сам Шрэк может исправить все, что он натворил, чтобы спасти друзей, восстановить привычный ему порядок вещей и вернуть себе свою единственную Истинную Любовь.</span>
<span class="post-font-serif1">Релиз группы </span>
<span class="post-font-serif1">Качество: BDRip / рип с Blu-ray 1080p
Формат: MP4
Видео кодек: H.264
Аудио кодек: AAC
Видео: 960x408 AR:2.35 1740 kbps 23.976 fps
Аудио №1: [Russian] 2ch 48 kHz 128 kbps - [Dub] Профессиональный (полное дублирование) Blu-ray CEE
Аудио №2: [Ukrainian] 2ch 48 kHz 128 kbps - [Dub] Профессиональный (полное дублирование) Blu-ray CEE
Аудио №3: [English] 2ch 48 kHz 128 kbps - Оригинал</span>
avs [info]: 960x408p 1:1 @ 2997/125 fps (cfr)
x264 [info]: using SAR=1/1
x264 [info]: using cpu capabilities: MMX2 SSE2Fast SSSE3 SSE4.2 AVX FMA3 AVX2 LZCNT BMI2
x264 [info]: profile High, level 4.1

x264 [info]: frame I:1332 Avg QP:14.08 size: 75437
x264 [info]: frame P:34985 Avg QP:18.09 size: 17958
x264 [info]: frame B:97720 Avg QP:20.40 size: 4985
x264 [info]: consecutive B-frames: 4.3% 4.2% 17.0% 25.4% 20.9% 23.2% 2.2% 1.3% 1.6%
x264 [info]: mb I I16..4: 2.4% 68.5% 29.1%
x264 [info]: mb P I16..4: 0.9% 10.6% 2.3% P16..4: 30.3% 31.6% 13.9% 0.0% 0.0% skip:10.4%
x264 [info]: mb B I16..4: 0.1% 1.1% 0.2% B16..8: 28.2% 17.5% 3.9% direct: 4.0% skip:45.0% L0:40.2% L1:42.6% BI:17.2%
x264 [info]: 8x8 transform intra:75.2% inter:51.4%
x264 [info]: direct mvs spatial:94.7% temporal:5.3%
x264 [info]: coded y,uvDC,uvAC intra: 84.8% 88.1% 69.4% inter: 16.8% 15.3% 9.0%
x264 [info]: i16 v,h,dc,p: 13% 12% 5% 71%
x264 [info]: i8 v,h,dc,ddl,ddr,vr,hd,vl,hu: 12% 10% 7% 9% 12% 11% 13% 11% 15%
x264 [info]: i4 v,h,dc,ddl,ddr,vr,hd,vl,hu: 15% 8% 6% 9% 14% 12% 13% 10% 13%
x264 [info]: i8c dc,h,v,p: 38% 25% 18% 20%
x264 [info]: Weighted P-Frames: Y:6.9% UV:5.1%
x264 [info]: ref P L0: 57.2% 9.8% 12.9% 7.1% 4.1% 3.6% 2.8% 2.3% 0.2% 0.0%
x264 [info]: ref B L0: 77.0% 9.8% 5.4% 3.1% 2.8% 1.3% 0.6%
x264 [info]: ref B L1: 95.0% 5.0%
x264 [info]: kb/s:1739.91

encoded 134037 frames, 15.69 fps, 1739.91 kb/s
GeneralComplete name : D:\Torrents\Shrek Collection.2001-2011.BDRip.x264.960x\Shrek Forever After.2010.BDRip.x264.960x.rip by Frost O.S.mp4Format : MPEG-4Format profile : Base MediaCodec ID : isom (isom/avc1/iso2)File size : 1.39 GiBDuration : 1 h 33 minOverall bit rate mode : VariableOverall bit rate : 2 139 kb/sMovie name : Shrek Forever After 2010 BDRip x264 960x rip by Frost O SGenre : ActionContentType : Short FilmEncoded date : UTC 2017-02-17 13:49:59Tagged date : UTC 2017-02-17 13:51:42Writing application : MkvToMp4 version: 0.224 (x64)Comment : rip by Frost O.S

VideoID : 1Format : AVCFormat/Info : Advanced Video CodecFormat profile : [email protected] settings, CABAC : YesFormat settings, ReFrames : 8 framesCodec ID : avc1Codec ID/Info : Advanced Video CodingDuration : 1 h 33 minBit rate : 1 740 kb/sMaximum bit rate : 7 253 kb/sWidth : 960 pixelsHeight : 408 pixelsDisplay aspect ratio : 2.35:1Frame rate mode : ConstantFrame rate : 23.976 (24000/1001) FPSOriginal frame rate : 23.976 (23976/1000) FPSColor space : YUVChroma subsampling : 4:2:0Bit depth : 8 bitsScan type : ProgressiveBits/(Pixel*Frame) : 0.185Stream size : 1.13 GiB (81%)Writing library : x264 core 148 r2705 3f5ed56Encoding settings : cabac=1 / ref=8 / deblock=1:-2:-2 / analyse=0x3:0x113 / me=umh / subme=11 / psy=1 / psy_rd=0.80:0.00 / mixed_ref=1 / me_range=32 / chroma_me=1 / trellis=2 / 8x8dct=1 / cqm=0 / deadzone=21,11 / fast_pskip=0 / chroma_qp_offset=-2 / threads=6 / lookahead_threads=1 / sliced_threads=0 / nr=0 / decimate=0 / interlaced=0 / bluray_compat=0 / constrained_intra=0 / bframes=8 / b_pyramid=2 / b_adapt=2 / b_bias=0 / direct=3 / weightb=1 / open_gop=0 / weightp=2 / keyint=250 / keyint_min=23 / scenecut=40 / intra_refresh=0 / rc=2pass / mbtree=0 / bitrate=1740 / ratetol=1.0 / qcomp=0.70 / qpmin=0 / qpmax=69 / qpstep=4 / cplxblur=20.0 / qblur=0.5 / ip_ratio=1.40 / pb_ratio=1.30 / aq=3:0.80Language : EnglishEncoded date : UTC 2017-02-17 13:49:59Tagged date : UTC 2017-02-17 13:50:36Color range : LimitedColor primaries : BT.709Transfer characteristics : BT.709Matrix coefficients : BT.709

Audio #1ID : 2Format : AACFormat/Info : Advanced Audio CodecFormat profile : LCCodec ID : 40Duration : 1 h 33 minBit rate mode : VariableBit rate : 128 kb/sMaximum bit rate : 135 kb/sChannel(s) : 2 channelsChannel positions : Front: L RSampling rate : 48.0 kHzFrame rate : 46.875 FPS (1024 spf)Compression mode : LossyStream size : 85.3 MiB (6%)Title : Blu_ray 1080p / Blu_ray 1080pLanguage : RussianDefault : YesAlternate group : 1Encoded date : UTC 2017-02-17 13:50:15Tagged date : UTC 2017-02-17 13:50:36

Audio #2ID : 3Format : AACFormat/Info : Advanced Audio CodecFormat profile : LCCodec ID : 40Duration : 1 h 33 minBit rate mode : VariableBit rate : 128 kb/sMaximum bit rate : 135 kb/sChannel(s) : 2 channelsChannel positions : Front: L RSampling rate : 48.0 kHzFrame rate : 46.875 FPS (1024 spf)Compression mode : LossyStream size : 85.3 MiB (6%)Title : Dub_ Blu_ray CEE / Dub_ Blu_ray CEELanguage : UkrainianDefault : NoAlternate group : 1Encoded date : UTC 2017-02-17 13:50:26Tagged date : UTC 2017-02-17 13:50:36

Audio #3ID : 4Format : AACFormat/Info : Advanced Audio CodecFormat profile : LCCodec ID : 40Duration : 1 h 33 minBit rate mode : VariableBit rate : 128 kb/sMaximum bit rate : 135 kb/sChannel(s) : 2 channelsChannel positions : Front: L RSampling rate : 48.0 kHzFrame rate : 46.875 FPS (1024 spf)Compression mode : LossyStream size : 85.3 MiB (6%)Title : Original / OriginalLanguage : EnglishDefault : NoAlternate group : 1Encoded date : UTC 2017-02-17 13:50:31Tagged date : UTC 2017-02-17 13:50:36

Text #1ID : 5Format : Timed TextMuxing mode : sbtlCodec ID : tx3gDuration : 1 h 23 minBit rate mode : VariableBit rate : 108 b/sStream size : 65.4 KiB (0%)Title : Blu_ray CEE / Blu_ray CEELanguage : RussianDefault : YesForced : NoAlternate group : 2Encoded date : UTC 2017-02-17 13:50:36Tagged date : UTC 2017-02-17 13:50:36

Text #2ID : 6Format : Timed TextMuxing mode : sbtlCodec ID : tx3gDuration : 1 h 23 minBit rate mode : VariableBit rate : 102 b/sStream size : 62.1 KiB (0%)Title : Blu_ray CEE / Blu_ray CEELanguage : UkrainianDefault : NoForced : NoAlternate group : 2Encoded date : UTC 2017-02-17 13:50:36Tagged date : UTC 2017-02-17 13:50:36

Text #3ID : 7Format : Timed TextMuxing mode : sbtlCodec ID : tx3gDuration : 1 h 23 minBit rate mode : VariableBit rate : 66 b/sStream size : 39.9 KiB (0%)Title : Blu_ray CEE / Blu_ray CEELanguage : EnglishDefault : NoForced : NoAlternate group : 2Encoded date : UTC 2017-02-17 13:50:36Tagged date : UTC 2017-02-17 13:50:36
<span class="post-font-serif1">Шрэк 4-D: Призрак Лорда Фаркуада / Shrek 4-D: The Ghost of Lord Farquaad</span>

<span class="post-font-serif1">Год выпуска: 2003
Страна: США
Жанр: короткометражный, анимационный фильм
Продолжительность: 01:12:32
Перевод №1: Профессиональный (полное дублирование) Blu-ray 1080p
Перевод №2: Любительский (многоголосый, закадровый) SkyeFilmTV
Оригинальная дорожка: Есть
Cубтитры: английские</span>
<span class="post-font-serif1">Режиссер: Саймон Дж. Смит / Simon J. Smith</span>
<span class="post-font-serif1">В ролях: Майк Майерс, Эдди Мёрфи, Джон Литгоу, Конрад Вернон, Коуди Камерон, Кэмерон Диаз, Кристофер Найтс, Саймон Дж. Смит и другие .</span>
<span class="post-font-serif1">Описание: Лорд Фаркуард был съеден драконом, но его дух все еще жив и все так же зол. Он похищает Фиону с помощью все еще живого помощника-подручного. Шрек и Осел отправляются в путешествие, чтобы спасти принцессу.</span>
<span class="post-font-serif1">Релиз группы </span>
<span class="post-font-serif1">Качество: BDRip / рип с BDRemux 1080p
Формат: MP4
Видео кодек: H.264
Аудио кодек: AAC
Видео: 960x434 AR:2.2 1740 kbps 23.976 fps
Аудио №1: [Russian]2ch 48 kHz 128 kbps - [Dub] Профессиональный (полное дублирование) Blu-ray 1080p
Аудио №2: [Russian] 2ch 48 kHz 128 kbps - [MVO] Любительский (многоголосый, закадровый) SkyeFilmTV
Аудио №3: [English] 2ch 48 kHz 128 kbps - Оригинал</span>
avs [info]: 960x434p 1:1 @ 2997/125 fps (cfr)
x264 [info]: using SAR=1/1
x264 [info]: using cpu capabilities: MMX2 SSE2Fast SSSE3 SSE4.2 AVX FMA3 AVX2 LZCNT BMI2
x264 [info]: profile High, level 4.1

x264 [info]: frame I:134 Avg QP:14.57 size: 54961
x264 [info]: frame P:4991 Avg QP:20.11 size: 17429
x264 [info]: frame B:12924 Avg QP:21.44 size: 5344
x264 [info]: consecutive B-frames: 5.0% 5.0% 18.4% 29.1% 18.4% 18.1% 2.4% 3.5%
x264 [info]: mb I I16..4: 16.3% 54.9% 28.8%
x264 [info]: mb P I16..4: 2.7% 15.7% 2.9% P16..4: 27.9% 28.3% 10.3% 0.0% 0.0% skip:12.2%
x264 [info]: mb B I16..4: 0.5% 2.2% 0.4% B16..8: 27.2% 16.4% 3.0% direct: 3.2% skip:47.0% L0:40.2% L1:44.0% BI:15.8%
x264 [info]: 8x8 transform intra:71.3% inter:63.7%
x264 [info]: direct mvs spatial:92.8% temporal:7.2%
x264 [info]: coded y,uvDC,uvAC intra: 64.9% 80.3% 54.6% inter: 17.5% 19.2% 9.0%
x264 [info]: i16 v,h,dc,p: 26% 15% 10% 50%
x264 [info]: i8 v,h,dc,ddl,ddr,vr,hd,vl,hu: 12% 7% 10% 8% 12% 11% 14% 11% 15%
x264 [info]: i4 v,h,dc,ddl,ddr,vr,hd,vl,hu: 24% 7% 11% 7% 11% 10% 11% 8% 11%
x264 [info]: i8c dc,h,v,p: 32% 29% 19% 20%
x264 [info]: Weighted P-Frames: Y:14.5% UV:11.9%
x264 [info]: ref P L0: 56.8% 9.8% 13.8% 5.6% 4.0% 3.2% 2.7% 1.7% 1.8% 0.4% 0.1%
x264 [info]: ref B L0: 83.6% 7.1% 3.7% 1.9% 1.5% 1.1% 0.8% 0.3%
x264 [info]: ref B L1: 96.8% 3.2%
x264 [info]: kb/s:1736.63

encoded 18049 frames, 14.36 fps, 1736.64 kb/s
GeneralComplete name : D:\Torrents\Shrek Collection.2001-2011.BDRip.x264.960x\Shrek 4-D The Ghost of Lord Farquaad.2003.BDRip.x264.960x.rip by Frost O.S.mp4Format : MPEG-4Format profile : Base MediaCodec ID : isom (isom/avc1/iso2)File size : 192 MiBDuration : 12 min 32 sOverall bit rate mode : VariableOverall bit rate : 2 136 kb/sMovie name : Shrek 4-D The Ghost of Lord Farquaad 2003 BDRip x264 960x rip by Frost O SGenre : AnimationContentType : Short FilmEncoded date : UTC 2017-02-17 13:58:03Tagged date : UTC 2017-02-17 13:58:06Writing application : MkvToMp4 version: 0.224 (x64)Cover : YesComment : rip by Frost O.S

VideoID : 1Format : AVCFormat/Info : Advanced Video CodecFormat profile : [email protected] settings, CABAC : YesFormat settings, ReFrames : 9 framesCodec ID : avc1Codec ID/Info : Advanced Video CodingDuration : 12 min 32 sBit rate : 1 740 kb/sMaximum bit rate : 5 852 kb/sWidth : 960 pixelsHeight : 434 pixelsDisplay aspect ratio : 2.2:1Frame rate mode : ConstantFrame rate : 23.976 (24000/1001) FPSOriginal frame rate : 23.976 (23976/1000) FPSColor space : YUVChroma subsampling : 4:2:0Bit depth : 8 bitsScan type : ProgressiveBits/(Pixel*Frame) : 0.174Stream size : 156 MiB (81%)Writing library : x264 core 148 r2705 3f5ed56Encoding settings : cabac=1 / ref=9 / deblock=1:-2:-2 / analyse=0x3:0x113 / me=umh / subme=11 / psy=1 / psy_rd=0.70:0.00 / mixed_ref=1 / me_range=32 / chroma_me=1 / trellis=2 / 8x8dct=1 / cqm=0 / deadzone=21,11 / fast_pskip=0 / chroma_qp_offset=-2 / threads=6 / lookahead_threads=1 / sliced_threads=0 / nr=0 / decimate=0 / interlaced=0 / bluray_compat=0 / constrained_intra=0 / bframes=7 / b_pyramid=2 / b_adapt=2 / b_bias=0 / direct=3 / weightb=1 / open_gop=0 / weightp=2 / keyint=250 / keyint_min=23 / scenecut=40 / intra_refresh=0 / rc=2pass / mbtree=0 / bitrate=1740 / ratetol=1.0 / qcomp=0.70 / qpmin=0 / qpmax=69 / qpstep=4 / cplxblur=20.0 / qblur=0.5 / ip_ratio=1.40 / pb_ratio=1.30 / aq=3:0.60Language : EnglishEncoded date : UTC 2017-02-17 13:58:03Tagged date : UTC 2017-02-17 13:58:04Color range : LimitedColor primaries : BT.709Transfer characteristics : BT.709Matrix coefficients : BT.709

Audio #1ID : 2Format : AACFormat/Info : Advanced Audio CodecFormat profile : LCCodec ID : 40Duration : 12 min 32 sBit rate mode : VariableBit rate : 128 kb/sMaximum bit rate : 134 kb/sChannel(s) : 2 channelsChannel positions : Front: L RSampling rate : 48.0 kHzFrame rate : 46.875 FPS (1024 spf)Compression mode : LossyStream size : 11.5 MiB (6%)Title : Dub / DubLanguage : RussianDefault : YesAlternate group : 1Encoded date : UTC 2017-02-17 13:58:03Tagged date : UTC 2017-02-17 13:58:04

Audio #2ID : 3Format : AACFormat/Info : Advanced Audio CodecFormat profile : LCCodec ID : 40Duration : 12 min 32 sBit rate mode : VariableBit rate : 128 kb/sMaximum bit rate : 131 kb/sChannel(s) : 2 channelsChannel positions : Front: L RSampling rate : 48.0 kHzFrame rate : 46.875 FPS (1024 spf)Compression mode : LossyStream size : 11.5 MiB (6%)Title : MVO_ SkyeFilmTV / MVO_ SkyeFilmTVLanguage : RussianDefault : NoAlternate group : 1Encoded date : UTC 2017-02-17 13:58:04Tagged date : UTC 2017-02-17 13:58:04

Audio #3ID : 4Format : AACFormat/Info : Advanced Audio CodecFormat profile : LCCodec ID : 40Duration : 12 min 32 sBit rate mode : VariableBit rate : 128 kb/sMaximum bit rate : 131 kb/sChannel(s) : 2 channelsChannel positions : Front: L RSampling rate : 48.0 kHzFrame rate : 46.875 FPS (1024 spf)Compression mode : LossyStream size : 11.5 MiB (6%)Title : Original / OriginalLanguage : EnglishDefault : NoAlternate group : 1Encoded date : UTC 2017-02-17 13:58:04Tagged date : UTC 2017-02-17 13:58:04

TextID : 5Format : Timed TextMuxing mode : sbtlCodec ID : tx3gDuration : 11 min 43 sBit rate mode : VariableBit rate : 62 b/sStream size : 5.29 KiB (0%)Language : EnglishDefault : YesForced : NoAlternate group : 2Encoded date : UTC 2017-02-17 13:58:04Tagged date : UTC 2017-02-17 13:58:04
<span class="post-font-serif1">Шрэк: Рождество / Шрек-Мороз, Зеленый нос / Shrek the Halls</span>

<span class="post-font-serif1">Год выпуска: 2007
Страна: США
Жанр: короткометражный, анимационный фильм
Продолжительность: 00:28:01
Перевод №1: Профессиональный (полное дублирование)
Перевод №2: Профессиональный (полное дублирование)
Перевод №3: Профессиональный (многоголосый, закадровый) NovaFilmTV
Перевод №4: Авторский (одноголосый, закадровый) Андрей Дольский
Оригинальная дорожка: Есть
Cубтитры: русские, украинские, английские</span>
<span class="post-font-serif1">Режиссер: Гари Труздейл / Gary Trousdale</span>
<span class="post-font-serif1">В ролях: Майк Майерс, Эдди Мёрфи, Кэмерон Диаз, Антонио Бандерас, Шон Бишоп, Коуди Камерон, Сьюзэн Фитцер, Кристофер Найтс, Гари Труздейл, Конрад Вернон и другие .</span>
<span class="post-font-serif1">Описание: На этот раз Шрек стремится устроить идеальный праздник, удивить Фиону и своих замечательных сорванцов. Только вот незадача: прямо в разгар мероприятия появляются незванные гости — Осел и Кот в Сапогах. Они рушат все планы Шрека и он, сам того не желая, превращается в настоящего скрягу, сказочную разновидность диккенсовского Скруджа.</span>
<span class="post-font-serif1">Релиз группы </span>
<span class="post-font-serif1">Качество: BDRip / рип с BDRemux 1080p
Формат: MP4
Видео кодек: H.264
Аудио кодек: AAC
Видео: 960x540 AR:16/9 1740 kbps 23.976 fps
Аудио №1: [Russian] 2ch 48 kHz 128 kbps - [Dub] Профессиональный (полное дублирование)
Аудио №2: [Ukrainian] 2ch 48 kHz 128 kbps - [Dub] Профессиональный (полное дублирование)
Аудио №3: [Russian] 2ch 48 kHz 128 kbps - [MVO] Профессиональный (многоголосый, закадровый)NovaFilmTV
Аудио №4: [Russian] 2ch 48 kHz 128 kbps - [VO] Авторский (одноголосый, закадровый) Андрей Дольский
Аудио №5: [English] 2ch 48 kHz 128 kbps - Оригинал</span>
avs [info]: 960x540p 1:1 @ 2997/125 fps (cfr)
x264 [info]: using SAR=1/1
x264 [info]: using cpu capabilities: MMX2 SSE2Fast SSSE3 SSE4.2 AVX FMA3 AVX2 LZCNT BMI2
x264 [info]: profile High, level 4.1

x264 [info]: frame I:383 Avg QP:13.40 size: 83630
x264 [info]: frame P:9748 Avg QP:17.38 size: 17648
x264 [info]: frame B:30174 Avg QP:19.42 size: 5343
x264 [info]: consecutive B-frames: 2.7% 2.2% 13.0% 35.9% 16.8% 23.4% 2.0% 2.1% 1.9%
x264 [info]: mb I I16..4: 7.6% 72.9% 19.5%
x264 [info]: mb P I16..4: 0.7% 9.1% 1.3% P16..4: 26.0% 22.4% 9.2% 0.0% 0.0% skip:31.3%
x264 [info]: mb B I16..4: 0.1% 1.1% 0.2% B16..8: 20.0% 12.2% 2.7% direct: 4.8% skip:58.8% L0:41.3% L1:41.6% BI:17.1%
x264 [info]: 8x8 transform intra:79.9% inter:46.9%
x264 [info]: direct mvs spatial:96.7% temporal:3.3%
x264 [info]: coded y,uvDC,uvAC intra: 87.3% 87.5% 69.7% inter: 14.2% 11.0% 5.8%
x264 [info]: i16 v,h,dc,p: 33% 9% 8% 50%
x264 [info]: i8 v,h,dc,ddl,ddr,vr,hd,vl,hu: 10% 9% 7% 9% 12% 12% 12% 13% 16%
x264 [info]: i4 v,h,dc,ddl,ddr,vr,hd,vl,hu: 13% 8% 8% 8% 15% 13% 13% 10% 12%
x264 [info]: i8c dc,h,v,p: 37% 23% 18% 22%
x264 [info]: Weighted P-Frames: Y:5.2% UV:3.2%
x264 [info]: ref P L0: 50.6% 8.0% 14.6% 6.9% 8.6% 4.8% 3.7% 2.6% 0.2% 0.0%
x264 [info]: ref B L0: 74.9% 8.9% 6.2% 2.9% 4.7% 1.8% 0.7%
x264 [info]: ref B L1: 95.0% 5.0%
x264 [info]: kb/s:1738.42

encoded 40305 frames, 15.34 fps, 1738.43 kb/s
GeneralComplete name : D:\Torrents\Shrek Collection.2001-2011.BDRip.x264.960x\Shrek the Halls.2007.BDRip.x264.960x.rip by Frost O.S.mp4Format : MPEG-4Format profile : Base MediaCodec ID : isom (isom/avc1/iso2)File size : 481 MiBDuration : 28 min 1 sOverall bit rate mode : VariableOverall bit rate : 2 402 kb/sMovie name : Shrek the Halls 2007 BDRip x264 960x rip by Frost O SGenre : AnimationContentType : Short FilmEncoded date : UTC 2017-02-17 14:08:46Tagged date : UTC 2017-02-17 14:09:04Writing application : MkvToMp4 version: 0.224 (x64)Cover : YesComment : rip by Frost O.S

VideoID : 1Format : AVCFormat/Info : Advanced Video CodecFormat profile : [email protected] settings, CABAC : YesFormat settings, ReFrames : 8 framesCodec ID : avc1Codec ID/Info : Advanced Video CodingDuration : 28 min 1 sBit rate : 1 740 kb/sMaximum bit rate : 6 036 kb/sWidth : 960 pixelsHeight : 540 pixelsDisplay aspect ratio : 16:9Frame rate mode : ConstantFrame rate : 23.976 (24000/1001) FPSOriginal frame rate : 23.976 (23976/1000) FPSColor space : YUVChroma subsampling : 4:2:0Bit depth : 8 bitsScan type : ProgressiveBits/(Pixel*Frame) : 0.140Stream size : 348 MiB (72%)Writing library : x264 core 148 r2705 3f5ed56Encoding settings : cabac=1 / ref=8 / deblock=1:-2:-2 / analyse=0x3:0x113 / me=umh / subme=11 / psy=1 / psy_rd=0.80:0.00 / mixed_ref=1 / me_range=32 / chroma_me=1 / trellis=2 / 8x8dct=1 / cqm=0 / deadzone=21,11 / fast_pskip=0 / chroma_qp_offset=-2 / threads=6 / lookahead_threads=1 / sliced_threads=0 / nr=0 / decimate=0 / interlaced=0 / bluray_compat=0 / constrained_intra=0 / bframes=8 / b_pyramid=2 / b_adapt=2 / b_bias=0 / direct=3 / weightb=1 / open_gop=0 / weightp=2 / keyint=250 / keyint_min=23 / scenecut=40 / intra_refresh=0 / rc=2pass / mbtree=0 / bitrate=1740 / ratetol=1.0 / qcomp=0.75 / qpmin=0 / qpmax=69 / qpstep=4 / cplxblur=20.0 / qblur=0.5 / ip_ratio=1.40 / pb_ratio=1.30 / aq=3:0.80Language : EnglishEncoded date : UTC 2017-02-17 14:08:46Tagged date : UTC 2017-02-17 14:08:51Color range : LimitedColor primaries : BT.709Transfer characteristics : BT.709Matrix coefficients : BT.709

Audio #1ID : 2Format : AACFormat/Info : Advanced Audio CodecFormat profile : LCCodec ID : 40Duration : 28 min 1 sBit rate mode : VariableBit rate : 128 kb/sMaximum bit rate : 135 kb/sChannel(s) : 2 channelsChannel positions : Front: L RSampling rate : 48.0 kHzFrame rate : 46.875 FPS (1024 spf)Compression mode : LossyStream size : 25.7 MiB (5%)Title : Dub / DubLanguage : RussianDefault : YesAlternate group : 1Encoded date : UTC 2017-02-17 14:08:47Tagged date : UTC 2017-02-17 14:08:51

Audio #2ID : 3Format : AACFormat/Info : Advanced Audio CodecFormat profile : LCCodec ID : 40Duration : 28 min 1 sBit rate mode : VariableBit rate : 128 kb/sMaximum bit rate : 135 kb/sChannel(s) : 2 channelsChannel positions : Front: L RSampling rate : 48.0 kHzFrame rate : 46.875 FPS (1024 spf)Compression mode : LossyStream size : 25.7 MiB (5%)Title : Dub / DubLanguage : UkrainianDefault : NoAlternate group : 1Encoded date : UTC 2017-02-17 14:08:48Tagged date : UTC 2017-02-17 14:08:51

Audio #3ID : 4Format : AACFormat/Info : Advanced Audio CodecFormat profile : LCCodec ID : 40Duration : 28 min 1 sBit rate mode : VariableBit rate : 128 kb/sMaximum bit rate : 134 kb/sChannel(s) : 2 channelsChannel positions : Front: L RSampling rate : 48.0 kHzFrame rate : 46.875 FPS (1024 spf)Compression mode : LossyStream size : 25.7 MiB (5%)Title : MVO_ NovaFilmTV / MVO_ NovaFilmTVLanguage : RussianDefault : NoAlternate group : 1Encoded date : UTC 2017-02-17 14:08:49Tagged date : UTC 2017-02-17 14:08:51

Audio #4ID : 5Format : AACFormat/Info : Advanced Audio CodecFormat profile : LCCodec ID : 40Duration : 28 min 1 sBit rate mode : VariableBit rate : 128 kb/sMaximum bit rate : 134 kb/sChannel(s) : 2 channelsChannel positions : Front: L RSampling rate : 48.0 kHzFrame rate : 46.875 FPS (1024 spf)Compression mode : LossyStream size : 25.7 MiB (5%)Title : VO_ Dolskiy / VO_ DolskiyLanguage : RussianDefault : NoAlternate group : 1Encoded date : UTC 2017-02-17 14:08:50Tagged date : UTC 2017-02-17 14:08:51

Audio #5ID : 6Format : AACFormat/Info : Advanced Audio CodecFormat profile : LCCodec ID : 40Duration : 28 min 1 sBit rate mode : VariableBit rate : 128 kb/sMaximum bit rate : 133 kb/sChannel(s) : 2 channelsChannel positions : Front: L RSampling rate : 48.0 kHzFrame rate : 46.875 FPS (1024 spf)Compression mode : LossyStream size : 25.7 MiB (5%)Title : Original / OriginalLanguage : EnglishDefault : NoAlternate group : 1Encoded date : UTC 2017-02-17 14:08:51Tagged date : UTC 2017-02-17 14:08:51

Text #1ID : 7Format : Timed TextMuxing mode : sbtlCodec ID : tx3gDuration : 21 min 31 sBit rate mode : VariableBit rate : 159 b/sStream size : 25.1 KiB (0%)Language : RussianDefault : YesForced : NoAlternate group : 2Encoded date : UTC 2017-02-17 14:08:51Tagged date : UTC 2017-02-17 14:08:51

Text #2ID : 8Format : Timed TextMuxing mode : sbtlCodec ID : tx3gDuration : 21 min 31 sBit rate mode : VariableBit rate : 128 b/sStream size : 20.2 KiB (0%)Language : UkrainianDefault : NoForced : NoAlternate group : 2Encoded date : UTC 2017-02-17 14:08:51Tagged date : UTC 2017-02-17 14:08:51

Text #3ID : 9Format : Timed TextMuxing mode : sbtlCodec ID : tx3gDuration : 21 min 31 sBit rate mode : VariableBit rate : 92 b/sStream size : 14.4 KiB (0%)Language : EnglishDefault : NoForced : NoAlternate group : 2Encoded date : UTC 2017-02-17 14:08:51Tagged date : UTC 2017-02-17 14:08:51

Text #4ID : 10Format : Timed TextMuxing mode : sbtlCodec ID : tx3gDuration : 21 min 31 sBit rate mode : VariableBit rate : 102 b/sStream size : 16.0 KiB (0%)Language : EnglishDefault : NoForced : NoAlternate group : 2Encoded date : UTC 2017-02-17 14:08:51Tagged date : UTC 2017-02-17 14:08:51
<span class="post-font-serif1">Шрек. Триллер / Shrek. Thriller Night</span>

<span class="post-font-serif1">Год выпуска: 2011
Страна: США
Жанр: короткометражный, анимационный фильм
Продолжительность: 00:06:09
Перевод: Любительский (многоголосый, закадровый) RG Creative Sound
Оригинальная дорожка: Есть
Cубтитры: английские</span>
<span class="post-font-serif1">Режиссеры: Гэри Траусдейл / Gary Trousdale, Шон Бишоп / Sean Bishop</span>
<span class="post-font-serif1">В ролях: Майкл Гоф, Дин Эдвардс, Холли Филдс, Андре Соглиуззо, Коуди Камерон, Конрад Вернон и другие .</span>
<span class="post-font-serif1">Описание: Шреку наскучил обыденный Хэллоуин, ему захотелось что-то по-настоящему страшное. Сила "Триллера" дала ему больше, чем он ожидал...</span>
<span class="post-font-serif1">Релиз группы </span>
<span class="post-font-serif1">Качество: BDRip / рип с BDRemux 1080p
Формат: MP4
Видео кодек: H.264
Аудио кодек: AAC
Видео: 960x540 AR:16/9 1740 kbps 23.976 fps
Аудио №1: [Russian] 2ch 48 kHz 128 kbps - [MVO] Любительский (многоголосый, закадровый) RG Creative Sound
Аудио №2: [English] 2ch 48 kHz 128 kbps - Оригинал</span>
avs [info]: 960x540p 1:1 @ 2997/125 fps (cfr)
x264 [info]: using SAR=1/1
x264 [info]: using cpu capabilities: MMX2 SSE2Fast SSSE3 SSE4.2 AVX FMA3 AVX2 LZCNT BMI2
x264 [info]: profile High, level 4.1

x264 [info]: frame I:87 Avg QP:13.40 size: 53855
x264 [info]: frame P:2256 Avg QP:19.04 size: 17952
x264 [info]: frame B:6522 Avg QP:19.77 size: 5435
x264 [info]: consecutive B-frames: 3.9% 4.2% 19.1% 26.0% 15.8% 13.8% 2.7% 3.8% 10.6%
x264 [info]: mb I I16..4: 13.7% 57.2% 29.1%
x264 [info]: mb P I16..4: 1.6% 12.7% 2.5% P16..4: 26.9% 29.0% 9.1% 0.0% 0.0% skip:18.2%
x264 [info]: mb B I16..4: 0.2% 1.6% 0.3% B16..8: 25.2% 14.6% 2.8% direct: 2.6% skip:52.7% L0:39.8% L1:45.0% BI:15.2%
x264 [info]: 8x8 transform intra:73.5% inter:60.6%
x264 [info]: direct mvs spatial:92.5% temporal:7.5%
x264 [info]: coded y,uvDC,uvAC intra: 79.5% 75.0% 48.4% inter: 14.1% 10.4% 4.5%
x264 [info]: i16 v,h,dc,p: 29% 10% 7% 54%
x264 [info]: i8 v,h,dc,ddl,ddr,vr,hd,vl,hu: 9% 8% 6% 9% 13% 13% 14% 12% 15%
x264 [info]: i4 v,h,dc,ddl,ddr,vr,hd,vl,hu: 15% 8% 8% 8% 15% 13% 13% 9% 12%
x264 [info]: i8c dc,h,v,p: 32% 28% 19% 20%
x264 [info]: Weighted P-Frames: Y:9.2% UV:5.2%
x264 [info]: ref P L0: 61.4% 10.9% 12.8% 5.2% 3.8% 3.1% 2.7% 0.2% 0.0%
x264 [info]: ref B L0: 86.5% 7.2% 3.4% 1.5% 1.0% 0.5%
x264 [info]: ref B L1: 97.0% 3.0%
x264 [info]: kb/s:1744.63

encoded 8865 frames, 15.00 fps, 1744.64 kb/s
GeneralComplete name : D:\Torrents\Shrek Collection.2001-2011.BDRip.x264.960x\Shrek. Thriller Night.2011.BDRip.x264.960x.rip by Frost O.S.mp4Format : MPEG-4Format profile : Base MediaCodec ID : isom (isom/avc1/iso2)File size : 88.8 MiBDuration : 6 min 9 sOverall bit rate mode : VariableOverall bit rate : 2 015 kb/sMovie name : Shrek Thriller Night 2011 BDRip x264 960x rip by Frost O SGenre : AnimationContentType : Short FilmEncoded date : UTC 2017-02-17 14:17:19Tagged date : UTC 2017-02-17 14:17:20Writing application : MkvToMp4 [www.mkvtomp4.ru] version: 0.224 (x64)Cover : YesComment : rip by Frost O.S

VideoID : 1Format : AVCFormat/Info : Advanced Video CodecFormat profile : [email protected] settings, CABAC : YesFormat settings, ReFrames : 7 framesCodec ID : avc1Codec ID/Info : Advanced Video CodingDuration : 6 min 9 sBit rate : 1 740 kb/sMaximum bit rate : 5 391 kb/sWidth : 960 pixelsHeight : 540 pixelsDisplay aspect ratio : 16:9Frame rate mode : ConstantFrame rate : 23.976 (24000/1001) FPSOriginal frame rate : 23.976 (23976/1000) FPSColor space : YUVChroma subsampling : 4:2:0Bit depth : 8 bitsScan type : ProgressiveBits/(Pixel*Frame) : 0.140Stream size : 76.9 MiB (87%)Writing library : x264 core 148 r2705 3f5ed56Encoding settings : cabac=1 / ref=7 / deblock=1:-2:-2 / analyse=0x3:0x113 / me=umh / subme=11 / psy=1 / psy_rd=0.70:0.00 / mixed_ref=1 / me_range=32 / chroma_me=1 / trellis=2 / 8x8dct=1 / cqm=0 / deadzone=21,11 / fast_pskip=0 / chroma_qp_offset=-2 / threads=6 / lookahead_threads=1 / sliced_threads=0 / nr=0 / decimate=0 / interlaced=0 / bluray_compat=0 / constrained_intra=0 / bframes=8 / b_pyramid=2 / b_adapt=2 / b_bias=0 / direct=3 / weightb=1 / open_gop=0 / weightp=2 / keyint=250 / keyint_min=23 / scenecut=40 / intra_refresh=0 / rc=2pass / mbtree=0 / bitrate=1740 / ratetol=1.0 / qcomp=0.65 / qpmin=0 / qpmax=69 / qpstep=4 / cplxblur=20.0 / qblur=0.5 / ip_ratio=1.40 / pb_ratio=1.30 / aq=3:0.80Language : EnglishEncoded date : UTC 2017-02-17 14:17:19Tagged date : UTC 2017-02-17 14:17:19Color range : LimitedColor primaries : BT.709Transfer characteristics : BT.709Matrix coefficients : BT.709

Audio #1ID : 2Format : AACFormat/Info : Advanced Audio CodecFormat profile : LCCodec ID : 40Duration : 6 min 9 sBit rate mode : VariableBit rate : 128 kb/sMaximum bit rate : 135 kb/sChannel(s) : 2 channelsChannel positions : Front: L RSampling rate : 48.0 kHzFrame rate : 46.875 FPS (1024 spf)Compression mode : LossyStream size : 5.64 MiB (6%)Title : MVO_ RG Creative Sound / MVO_ RG Creative SoundLanguage : RussianDefault : YesAlternate group : 1Encoded date : UTC 2017-02-17 14:17:19Tagged date : UTC 2017-02-17 14:17:19

Audio #2ID : 3Format : AACFormat/Info : Advanced Audio CodecFormat profile : LCCodec ID : 40Duration : 6 min 9 sBit rate mode : VariableBit rate : 128 kb/sMaximum bit rate : 135 kb/sChannel(s) : 2 channelsChannel positions : Front: L RSampling rate : 48.0 kHzFrame rate : 46.875 FPS (1024 spf)Compression mode : LossyStream size : 5.64 MiB (6%)Title : Original / OriginalLanguage : EnglishDefault : NoAlternate group : 1Encoded date : UTC 2017-02-17 14:17:19Tagged date : UTC 2017-02-17 14:17:19

TextID : 4Format : Timed TextMuxing mode : sbtlCodec ID : tx3gDuration : 5 min 7 sBit rate mode : VariableBit rate : 73 b/sStream size : 2.74 KiB (0%)Language : EnglishDefault : YesForced : NoAlternate group : 2Encoded date : UTC 2017-02-17 14:17:19Tagged date : UTC 2017-02-17 14:17:19
<div class="clear" style="height: 8px;"></div>

Трекер:  [ 18-Фев-2017 08:00 ]

  

Скачать .torrent

Размер .torrent файла 20 KB


Размер: 7.49 GB
Хэш (hash) релиза: 664f2cbeea69cc85cb210638745c8a64345f7052

Еще никто не оставлял запись к записи скачать торрент [MULT] Шрек: Коллекция Shrek: Collection . Будь первым!

!Обратная связь