Grimm Love Is In The Air | autoDownloadshopruum.comWithGUI.zip | Aaron Kwok

Скачать через торрент [VIDEO] Обитель зла: Пенталогия Resident Evil: Pentalogy бесплатно русская версия torrent активатор

Статистика раздачи
Размер:  8.29 GB   |    Зарегистрирован:  1 год 5 месяцев   |    .torrent скачан:  46 раз   |   
Раздают:  1  
   
загрузка...
 
Автор Сообщение

Galfimbul

avatar Galfimbul


<span class="post-font-serif1">Обитель зла: Пенталогия / Resident Evil: Pentalogy [Theatrical Cut]</span>

<span class="post-font-serif1">Обитель зла / Resident Evil</span>

<span class="post-font-serif1">Год выпуска: 2002
Страна: Германия, Франция, Великобритания
Жанр: зомби-экшн
Продолжительность: 01:40:31
Перевод №1: русский Профессиональный (полное дублирование) Парадиз-ВС
Перевод №2: русский Профессиональный (многоголосый, закадровый) THT
Перевод №3: русский Профессиональный (многоголосый, закадровый) LDV
Перевод №4: украинский Профессиональный (многоголосый, закадровый) ICTV
Перевод №5: русский Профессиональный (двухголосый, закадровый) Петр Гланц и Инна Королёва
Перевод №6: русскийАвторский (одноголосый, закадровый) Дмитрий "Гоблин" Пучков присутствует ненормативная лексика
Перевод №7: русский Авторский (одноголосый, закадровый) Леонид Володарский
Перевод №8: русский Авторский (одноголосый, закадровый) Валерий Рукин
Перевод №9: русский Авторский (одноголосый, закадровый) Евгений Рудой
Перевод №10: русский Авторский (одноголосый, закадровый) Jakob Bellmann
Оригинальная дорожка: Есть
Cубтитры: руские, английские (отключаемые "softsub")</span>
<span class="post-font-serif1">Режиссер: Пол У. С. Андерсон / Paul W.S. Anderson</span>
<span class="post-font-serif1">В ролях: Колин Сэлмон, Милла Йовович, Мишель Родригес, Эрик Мэбиас, Джеймс Пьюрфой, Мартин Крюз, Райан МакКласки, Оскар Пирс, Индра Ове, Анна Болт и другие .</span>
<span class="post-font-serif1">Описание: В гигантской подземной лаборатории на волю вырывается опаснейший вирус, мгновенно превращая своих жертв в прожорливых зомби. Достаточно одного их укуса или царапины страшных когтей, чтобы человек стал обезумевшим пожирателем живой плоти.

Военные посылают в секретный комплекс, кишащий ужасными мутировавшими животными и голодными монстрами, группу спецназа, к которой присоединяются очаровательная Элис и отважный полицейский Мэтт. У них есть только три часа, чтобы уничтожить вирус до того, как он распространится по всей Земле…</span>
<span class="post-font-serif1">Релиз группы </span>
<span class="post-font-serif1">Фильм снят по мотивам серии компьютерных игр «Resident Evil» (1996 — н. в., Capcom).
За весь фильм ни разу не произносится слово «зомби». Это - намёк на «Ночь живых мертвецов» (1968), где также не упоминается данное слово.
Джереми Болт (продюсер фильма) сыграл одного из многочисленных зомби.
Легендарный Джордж Ромеро написал свой вариант сценария и готов был поставить фильм, но покинул проект в 1999 году из-за творческих разногласий. В его сценарии главной героиней была Джил Валентайн. По словам Ромеро, сценарий понравился абсолютно всем, за исключением Бернда Айхингера (продюсера картины). После ухода Ромеро проект пролежал на полке около года, пока Пол Андерсон не согласился написать сценарий и срежиссировать фильм.
Изначально картина должна была называться «Обитель зла: Нулевой уровень» (Resident Evil: Ground Zero), но после событий 11 сентября 2001 года фильм переименовали в «Обитель зла».
Код доступа в комнату Красной Королевы — 12177.
Один из заголовков в газете — «Мертвецы идут!» (The Dead Walk!). Это — намек на «День мертвецов» (1985), где в самом начале фильма можно заметить газету с точно таким же заголовком.
По стилю, свадебная фотография Элис и Спенсера очень похожа на фотографии из видеоигр «Resident Evil» (1996) и «Resident Evil 2» (1998): крупный план, явное преобладание черно-белых оттенков, заметный фотомонтаж заднего и переднего фонов.
Также как и в видеоиграх, после того как что-то включается/выключается, происходит еще какое-либо действие в другом месте. Например, когда Красная Королева деактивирована в первый раз, во всем комплексе открываются абсолютно все двери.
Крупный план глаза Элис ближе к концу фильма — ссылка на видеоигру «Resident Evil» (1996).
После «Смертельной битвы» (1995), «Обитель зла» стала второй экранизацией видеоигры в фильмографии Пола Андерсона.
В фильме содержится множество намеков и ссылок на «Приключение Алисы в зазеркалье». Например:
1) Имя главной героини — Элис (Alice).
2) Имя компьютера — Красная Королева.
3) Пресс-папье «Алиса в зазеркалье»
4) Испытания Т-вируса проходят на белом кролике.
5) Для того чтобы войти в улей, герои «проходят» через зеркало.
В концовке фильма в одной из газет можно заметить статью о спецотряде S.T.A.R.S., что является ссылкой на видеоигру «Resident Evil».
Ссылка на видеоигру «Gun Survivor: Resident Evil» (2000): некоторые персонажи страдают краткосрочной потерей памяти.
В фильме, «мужа» Элис зовут Спенсер (Spencer). Это — ссылка на видеоигру «Resident Evil» (1996), в котором события происходили в особняке «Spencer Estate».
Закадровый голос в начале фильма принадлежит Джейсону Айзексу.
Джеймс Батлер, координатор трюков, сыграл зомби, который нападает на Элис сразу после появления первой собаки-зомби.
Вороны, которых видит Элис в начале фильма, не настоящие, а компьютерные.
Президентов компании «Capcom Japan and America» можно заметить в фильме в роли зомби. Компания «Capcom» — создатель франчайза «Resident Evil».
В первом варианте сценария все обращались к Каплану, как «Двенадцатому». Его полное имя — Исиаб Тагава Меркурио.
После того как герои фильма возвращаются в комнату с лазерами, легко заметить, что тела погибших исчезли. Это — ссылка на видеоигры серии «Resident Evil», где также исчезали трупы: стоило лишь выйти из комнаты и снова в неё войти.
Пароль для двери в столовой «Б», тот самый, который забыл Каплан, - 04031965. Пол Андерсон родился 4 марта 1965.
Милла Йовович самостоятельно выполняла все трюки в фильме, за исключением прыжка в канализации.
Несмотря на то, что остальные герои картины называют персонажа Колина Сэлмона «Первым», его настоящее имя - Джеймс Шэйд.
Актеры, сыгравшие коммандос, а также Милла Йовович и Эрик Мабиус прошли специальную недельную подготовку (скалолазание, боевая подготовка, обращение с оружием и т. д.) под присмотром бывшего морского котика Джеймса Батлера.
Актеры, исполнившие главные роли в фильме, до начала съёмок должны были сыграть в видеоигру «Resident Evil», более того, они должны были её полностью пройти. Некоторые из них не были уверены, что они смогут выполнить поставленную задачу, поэтому им пришлось просмотреть видео с полным прохождением данной игры.
За время съемок Милла Йовович поранила режиссера и трех членов съемочной группы.
Милла и Пол помолвились после окончания съёмок.
Сцены на подземной станции были сняты в на тот момент незаконченной станции «Рейхстаг» берлинского метрополитена.
Мэтт случайно сталкивается со своей сестрой, превратившейся в зомби, и вынужден смотреть, как она «умирает». Данный эпизод очень похож на сцену из видеоигры «Resident Evil Code: Veronica» (2000), в которой Стив Бёрнсайд вынужден убить своего собственного отца, ставшего зомби, и смотреть на его предсмертные мучения.
В сцене, где происходит мутация Мэтта, практически не использовались компьютерные спецэффекты (лишь только в самой концовке сцены).
Финальные сцены (выхода Элис в Ракун-Сити) снимались в Торонто.</span>

<span class="post-font-serif1">Качество: BDRip / рип с BDRemux 1080p
Формат: MP4
Видео кодек: H.264
Аудио кодек: AAC
Видео: 960x520 AR:1.85 1740 kbps 23.976 fps
Аудио №1: [Russian] 2ch 48 kHz 128 kbps - [Dub] Профессиональный (полное дублированние) Парадиз-ВС
Аудио №2: [Russian] 2ch 48 kHz 128 kbps - [MVO] Профессиональный (многоголосый, закадровый) THT
Аудио №3: [Russian] 2ch 48 kHz 128 kbps - [MVO] Профессиональный (многоголосый, закадровый) LDV
Аудио №4: [Ukrainian] 2ch 48 kHz 128 kbps - [MVO] Профессиональный (многоголосый, закадровый) ICTV
Аудио №5: [Russian] 2ch 48 kHz 128 kbps - [DVO] Профессиональный (двухголосый, закадровый) Петр Гланц и Инна Королёва
Аудио №6: [Russian] 2ch 48 kHz 128 kbps - [VO] Авторский (одноголосый, закадровый) Дмитрий "Гоблин" Пучков присутствует ненормативная лексика
Аудио №7: [Russian] 2ch 48 kHz 128 kbps - [VO] Авторский (одноголосый, закадровый)) Леонид Володарский
Аудио №8: [Russian] 2ch 48 kHz 128 kbps - [VO] Авторский (одноголосый, закадровый) Валерий Рукин
Аудио №9: [Russian] 2ch 48 kHz 128 kbps - [VO] Авторский (одноголосый, закадровый) Евгений Рудой
Аудио №10: [Russian] 2ch 48 kHz 128 kbps - [VO] Авторский (одноголосый, закадровый) Jakob Bellmann
Аудио №11: [English] 2ch 48 kHz 128 kbps - Оригинальная дорожка Английский</span>
avs [info]: 960x520p 1:1 @ 2997/125 fps (cfr)
x264 [info]: using SAR=1/1
x264 [info]: using cpu capabilities: MMX2 SSE2Fast SSSE3 SSE4.2 AVX FMA3 AVX2 LZCNT BMI2
x264 [info]: profile High, level 4.1

x264 [info]: frame I:1160 Avg QP:17.54 size: 50446
x264 [info]: frame P:35575 Avg QP:21.15 size: 17559
x264 [info]: frame B:107865 Avg QP:22.60 size: 5808
x264 [info]: consecutive B-frames: 4.1% 4.9% 10.6% 23.3% 16.8% 24.9% 6.7% 5.2% 2.0% 1.5%
x264 [info]: mb I I16..4: 8.9% 74.8% 16.3%
x264 [info]: mb P I16..4: 1.3% 8.4% 1.2% P16..4: 36.8% 37.5% 8.6% 0.0% 0.0% skip: 6.3%
x264 [info]: mb B I16..4: 0.1% 0.7% 0.1% B16..8: 37.7% 17.8% 2.1% direct: 4.8% skip:36.7% L0:47.4% L1:45.1% BI: 7.5%
x264 [info]: 8x8 transform intra:77.6% inter:71.0%
x264 [info]: direct mvs spatial:98.4% temporal:1.6%
x264 [info]: coded y,uvDC,uvAC intra: 81.6% 88.7% 67.5% inter: 20.4% 30.6% 14.5%
x264 [info]: i16 v,h,dc,p: 16% 13% 5% 66%
x264 [info]: i8 v,h,dc,ddl,ddr,vr,hd,vl,hu: 9% 5% 3% 12% 17% 16% 15% 13% 11%
x264 [info]: i4 v,h,dc,ddl,ddr,vr,hd,vl,hu: 13% 7% 4% 10% 16% 15% 14% 11% 11%
x264 [info]: i8c dc,h,v,p: 40% 19% 18% 22%
x264 [info]: Weighted P-Frames: Y:20.0% UV:13.8%
x264 [info]: ref P L0: 44.7% 8.1% 19.4% 7.4% 6.0% 4.2% 3.9% 2.1% 2.0% 1.7% 0.5% 0.1%
x264 [info]: ref B L0: 69.3% 12.9% 6.7% 3.6% 2.6% 2.2% 1.7% 0.8% 0.3%
x264 [info]: ref B L1: 94.0% 6.0%
x264 [info]: kb/s:1737.29

encoded 144600 frames, 12.06 fps, 1737.29 kb/s
GeneralComplete name : D:\Torrents\Resident Evil Pentalogy.2002-2012.BDRip.x264.960x\Resident Evil.2002.BDRip.x264.960x.rip by Frost O.S.mp4Format : MPEG-4Format profile : Base MediaCodec ID : isom (isom/avc1/iso2)File size : 2.24 GiBDuration : 1 h 40 minOverall bit rate mode : VariableOverall bit rate : 3 189 kb/sMovie name : Resident Evil 2002 BDRip x264 960x rip by Frost O SGenre : ActionContentType : Short FilmEncoded date : UTC 2017-02-14 15:15:50Tagged date : UTC 2017-02-14 15:20:24Writing application : MkvToMp4 version: 0.224 (x64)Cover : YesComment : rip by Frost O.S

VideoID : 1Format : AVCFormat/Info : Advanced Video CodecFormat profile : [email protected] settings, CABAC : YesFormat settings, ReFrames : 10 framesCodec ID : avc1Codec ID/Info : Advanced Video CodingDuration : 1 h 40 minBit rate : 1 740 kb/sMaximum bit rate : 5 937 kb/sWidth : 960 pixelsHeight : 520 pixelsDisplay aspect ratio : 1.85:1Frame rate mode : ConstantFrame rate : 23.976 (24000/1001) FPSOriginal frame rate : 23.976 (23976/1000) FPSColor space : YUVChroma subsampling : 4:2:0Bit depth : 8 bitsScan type : ProgressiveBits/(Pixel*Frame) : 0.145Stream size : 1.22 GiB (54%)Writing library : x264 core 148 r2705 3f5ed56Encoding settings : cabac=1 / ref=10 / deblock=1:-2:-2 / analyse=0x3:0x113 / me=umh / subme=11 / psy=1 / psy_rd=1.08:0.00 / mixed_ref=1 / me_range=32 / chroma_me=1 / trellis=2 / 8x8dct=1 / cqm=0 / deadzone=21,11 / fast_pskip=0 / chroma_qp_offset=-2 / threads=6 / lookahead_threads=1 / sliced_threads=0 / nr=0 / decimate=0 / interlaced=0 / bluray_compat=0 / constrained_intra=0 / bframes=9 / b_pyramid=2 / b_adapt=2 / b_bias=0 / direct=3 / weightb=1 / open_gop=0 / weightp=2 / keyint=250 / keyint_min=23 / scenecut=40 / intra_refresh=0 / rc=2pass / mbtree=0 / bitrate=1740 / ratetol=1.0 / qcomp=0.65 / qpmin=0 / qpmax=69 / qpstep=4 / cplxblur=20.0 / qblur=0.5 / ip_ratio=1.40 / pb_ratio=1.30 / aq=3:0.40Language : EnglishEncoded date : UTC 2017-02-14 15:15:50Tagged date : UTC 2017-02-14 15:17:25Color range : LimitedColor primaries : BT.709Transfer characteristics : BT.709Matrix coefficients : BT.709

Audio #1ID : 2Format : AACFormat/Info : Advanced Audio CodecFormat profile : LCCodec ID : 40Duration : 1 h 40 minBit rate mode : VariableBit rate : 128 kb/sMaximum bit rate : 135 kb/sChannel(s) : 2 channelsChannel positions : Front: L RSampling rate : 48.0 kHzFrame rate : 46.875 FPS (1024 spf)Compression mode : LossyStream size : 92.0 MiB (4%)Title : Dub_ Paradiz_BC / Dub_ Paradiz_BCLanguage : RussianDefault : YesAlternate group : 1Encoded date : UTC 2017-02-14 15:16:27Tagged date : UTC 2017-02-14 15:17:25

Audio #2ID : 3Format : AACFormat/Info : Advanced Audio CodecFormat profile : LCCodec ID : 40Duration : 1 h 40 minBit rate mode : VariableBit rate : 128 kb/sMaximum bit rate : 135 kb/sChannel(s) : 2 channelsChannel positions : Front: L RSampling rate : 48.0 kHzFrame rate : 46.875 FPS (1024 spf)Compression mode : LossyStream size : 91.9 MiB (4%)Title : MVO_ THT / MVO_ THTLanguage : RussianDefault : NoAlternate group : 1Encoded date : UTC 2017-02-14 15:16:32Tagged date : UTC 2017-02-14 15:17:25

Audio #3ID : 4Format : AACFormat/Info : Advanced Audio CodecFormat profile : LCCodec ID : 40Duration : 1 h 40 minBit rate mode : VariableBit rate : 128 kb/sMaximum bit rate : 132 kb/sChannel(s) : 2 channelsChannel positions : Front: L RSampling rate : 48.0 kHzFrame rate : 46.875 FPS (1024 spf)Compression mode : LossyStream size : 92.0 MiB (4%)Title : MVO_ LDV / MVO_ LDVLanguage : RussianDefault : NoAlternate group : 1Encoded date : UTC 2017-02-14 15:16:37Tagged date : UTC 2017-02-14 15:17:25

Audio #4ID : 5Format : AACFormat/Info : Advanced Audio CodecFormat profile : LCCodec ID : 40Duration : 1 h 40 minBit rate mode : VariableBit rate : 128 kb/sMaximum bit rate : 132 kb/sChannel(s) : 2 channelsChannel positions : Front: L RSampling rate : 48.0 kHzFrame rate : 46.875 FPS (1024 spf)Compression mode : LossyStream size : 92.0 MiB (4%)Title : MVO_ ICTV / MVO_ ICTVLanguage : UkrainianDefault : NoAlternate group : 1Encoded date : UTC 2017-02-14 15:16:42Tagged date : UTC 2017-02-14 15:17:25

Audio #5ID : 6Format : AACFormat/Info : Advanced Audio CodecFormat profile : LCCodec ID : 40Duration : 1 h 40 minBit rate mode : VariableBit rate : 128 kb/sMaximum bit rate : 135 kb/sChannel(s) : 2 channelsChannel positions : Front: L RSampling rate : 48.0 kHzFrame rate : 46.875 FPS (1024 spf)Compression mode : LossyStream size : 92.0 MiB (4%)Title : DVO_ Glanz_Koroleva / DVO_ Glanz_KorolevaLanguage : RussianDefault : NoAlternate group : 1Encoded date : UTC 2017-02-14 15:16:46Tagged date : UTC 2017-02-14 15:17:25

Audio #6ID : 7Format : AACFormat/Info : Advanced Audio CodecFormat profile : LCCodec ID : 40Duration : 1 h 40 minBit rate mode : VariableBit rate : 128 kb/sMaximum bit rate : 135 kb/sChannel(s) : 2 channelsChannel positions : Front: L RSampling rate : 48.0 kHzFrame rate : 46.875 FPS (1024 spf)Compression mode : LossyStream size : 92.0 MiB (4%)Title : VO_ Goblin / VO_ GoblinLanguage : RussianDefault : NoAlternate group : 1Encoded date : UTC 2017-02-14 15:16:52Tagged date : UTC 2017-02-14 15:17:25

Audio #7ID : 8Format : AACFormat/Info : Advanced Audio CodecFormat profile : LCCodec ID : 40Duration : 1 h 40 minBit rate mode : VariableBit rate : 128 kb/sMaximum bit rate : 135 kb/sChannel(s) : 2 channelsChannel positions : Front: L RSampling rate : 48.0 kHzFrame rate : 46.875 FPS (1024 spf)Compression mode : LossyStream size : 92.0 MiB (4%)Title : VO_ Volodarskii / VO_ VolodarskiiLanguage : RussianDefault : NoAlternate group : 1Encoded date : UTC 2017-02-14 15:16:57Tagged date : UTC 2017-02-14 15:17:25

Audio #8ID : 9Format : AACFormat/Info : Advanced Audio CodecFormat profile : LCCodec ID : 40Duration : 1 h 40 minBit rate mode : VariableBit rate : 128 kb/sMaximum bit rate : 135 kb/sChannel(s) : 2 channelsChannel positions : Front: L RSampling rate : 48.0 kHzFrame rate : 46.875 FPS (1024 spf)Compression mode : LossyStream size : 92.0 MiB (4%)Title : VO_ Rukin / VO_ RukinLanguage : RussianDefault : NoAlternate group : 1Encoded date : UTC 2017-02-14 15:17:02Tagged date : UTC 2017-02-14 15:17:25

Audio #9ID : 10Format : AACFormat/Info : Advanced Audio CodecFormat profile : LCCodec ID : 40Duration : 1 h 40 minBit rate mode : VariableBit rate : 128 kb/sMaximum bit rate : 135 kb/sChannel(s) : 2 channelsChannel positions : Front: L RSampling rate : 48.0 kHzFrame rate : 46.875 FPS (1024 spf)Compression mode : LossyStream size : 92.0 MiB (4%)Title : VO_ Rudoi / VO_ RudoiLanguage : RussianDefault : NoAlternate group : 1Encoded date : UTC 2017-02-14 15:17:08Tagged date : UTC 2017-02-14 15:17:25

Audio #10ID : 11Format : AACFormat/Info : Advanced Audio CodecFormat profile : LCCodec ID : 40Duration : 1 h 40 minBit rate mode : VariableBit rate : 128 kb/sMaximum bit rate : 135 kb/sChannel(s) : 2 channelsChannel positions : Front: L RSampling rate : 48.0 kHzFrame rate : 46.875 FPS (1024 spf)Compression mode : LossyStream size : 92.0 MiB (4%)Title : VO_ Jakob Bellmann / VO_ Jakob BellmannLanguage : RussianDefault : NoAlternate group : 1Encoded date : UTC 2017-02-14 15:17:13Tagged date : UTC 2017-02-14 15:17:25

Audio #11ID : 12Format : AACFormat/Info : Advanced Audio CodecFormat profile : LCCodec ID : 40Duration : 1 h 40 minBit rate mode : VariableBit rate : 128 kb/sMaximum bit rate : 135 kb/sChannel(s) : 2 channelsChannel positions : Front: L RSampling rate : 48.0 kHzFrame rate : 46.875 FPS (1024 spf)Compression mode : LossyStream size : 92.0 MiB (4%)Title : Original / OriginalLanguage : EnglishDefault : NoAlternate group : 1Encoded date : UTC 2017-02-14 15:17:19Tagged date : UTC 2017-02-14 15:17:25

Text #1ID : 13Format : Timed TextMuxing mode : sbtlCodec ID : tx3gDuration : 1 h 33 minBit rate mode : VariableBit rate : 58 b/sStream size : 39.8 KiB (0%)Language : RussianDefault : YesForced : NoAlternate group : 2Encoded date : UTC 2017-02-14 15:17:25Tagged date : UTC 2017-02-14 15:17:25

Text #2ID : 14Format : Timed TextMuxing mode : sbtlCodec ID : tx3gDuration : 1 h 31 minBit rate mode : VariableBit rate : 37 b/sStream size : 24.8 KiB (0%)Language : EnglishDefault : NoForced : NoAlternate group : 2Encoded date : UTC 2017-02-14 15:17:25Tagged date : UTC 2017-02-14 15:17:25

Text #3ID : 15Format : Timed TextMuxing mode : sbtlCodec ID : tx3gDuration : 1 h 40 minBit rate mode : VariableBit rate : 47 b/sStream size : 34.4 KiB (0%)Language : EnglishDefault : NoForced : NoAlternate group : 2Encoded date : UTC 2017-02-14 15:17:25Tagged date : UTC 2017-02-14 15:17:25
<span class="post-font-serif1">Обитель зла 2: Апокалипсис / Resident Evil: Apocalypse</span>

<span class="post-font-serif1">Год выпуска: 2004
Страна: Германия, Франция, Великобритания, Канада, США
Жанр: зомби-экшн
Продолжительность: 01:33:48
Перевод №1: русский Профессиональный (полное дублирование) Парадиз-ВС
Перевод №2: русский Профессиональный (двухголосый, закадровый) Tycoon studio (присутствует ненормативная лексика)
Перевод №3: русский Профессиональный (двухголосый, закадровый) Петр Гланц и Инна Королёва
Перевод №4: украинский Профессиональный (многоголосый, закадровый) ICTV
Перевод №5: русский Авторский (одноголосый, закадровый) Юрий Живов
Оригинальная дорожка: Есть
Cубтитры: руские, английские (отключаемые "softsub")</span>
<span class="post-font-serif1">Режиссер: Александр Уитт / Alexander Witt</span>
<span class="post-font-serif1">В ролях: Милла Йовович, Сиенна Гиллори, Одед Фер, Томас Кречманн, Софи Вавасо, Разаак Адоти, Джаред Харрис, Майк Еппс, Сандрин Холт, Мэттью Дж. Тейлор и другие .</span>
<span class="post-font-serif1">Описание: Действие картины разворачивается на улицах печально известного Ракун-сити, города, контролируемого могущественной корпорацией «Амбрелла».

После бактериологической катастрофы все жители стали медленно превращаться в зомби, а те немногочисленные граждане, чей разум ещё не был до конца изъеден ужасным вирусом, доживали свои последние дни в атмосфере страха и желания скорейшей смерти…</span>
<span class="post-font-serif1">Релиз группы </span>
<span class="post-font-serif1">Фильм снят по мотивам серии компьютерных игр «Resident Evil» (1996 — н. в., Capcom).
Наташа Хенстридж вполне могла сыграть роль Джилл Валентайн, однако не смогла принять это предложение ввиду более заманчивых предложений. В итоге роль досталась Сиенне Гиллори. Актриса заявила, что взяла манеры поведения и походку своего персонажа на основе впечатлений от одноименной видеоигры.
«Немезида» — так называется третья часть культовой видеоигры, по мотивам которой и началась работа над данной картиной. Именно такое название первоначально и носила вторая часть «Обители зла». Чуть позднее это название было изменено на текущее -«Обитель зла 2: Апокалипсис», ибо в 2002 году был выпущен фильм «Звездный путь: Немезида».
Джейсон Айзекс мог сыграть роль доктора Биркина, но выбыл из проекта.
Трейлер (рекламный видеоролик) к этой картине стал одним из самых популярных. За период с ноября 2003 по май 2004 ролик был скачан 8,5 миллионами пользователей.
Оружие под названием «Немезида» (на самом деле оно носит название M134) является разработкой компании General Electric. Впрочем, специально для фильма был подготовлен эксклюзивный вариант.
Здание, взрывающееся в картине (разумеется, не по-настоящему), существует в действительности — это административный центр Торонто.
По словам Пола Андерсона (сценариста и продюсера) имя доктора Айзекса (Айэйн Глен) — знак уважения актеру Джейсону Айзексу, закадровый голос которого мы можем услышать в самом начале первого фильма.
Телефонная гарнитура, которой пользуется майор Кейн, — SonyEricsson HBH-65 bluetooth headset.
Если не учитывать кадры с участием Эрика Мэбиуса, то единственным персонажем, перешедшим из первой картины, будет Элис (Милла Йовович).
Персонаж доктора Эшфорда был назван в честь семьи Эшфорд в серии видеоигр «Resident Evil». Однако, в фильме это — положительный персонаж, а в видеоиграх — отрицательный.
В фильме были использованы сюжетные линии видеоигр «Resident Evil 2» (1998) и «Resident Evil 3: Nemesis» (1999).
В фильме Немезис произносит лишь только одно слово — «STARS». В видеоигре «Resident Evil 3: Nemesis» (1999) он неоднократно произносил данное слово.
В финальной схватке мы можем услышать слова «Прикончи его» (Finish him). Данная фраза — цитата из видеоигр серии «Mortal Kombat». Пол Андерсон был режиссером экранизации данной игры.
Один из заголовков в газете — «Мертвецы идут!» (The Dead Walk!). Это — намек на «День мертвецов» (1985), где в самом начале фильма можно заметить газету с точно таким же заголовком.
В фильме содержится множество намеков и ссылок на серию видеоигр «Resident Evil».
Вот лишь некоторые из них:
Крупный план глаза Элис незадолго до концовки фильма — ссылка на первую часть видеоигры.
Белую статую можно заметить в церкви: в видеоиграх статуи всегда играли важную роль в прохождении игры.
Смерть Терри записывается на её же камеру, которая упала на пол. В «Resident Evil» (GameCube remake) (2002) содержится точно такая же сцена.
В фильме есть сцена, в которой Элис заходит в оружейный магазин, что может быть возможной ссылкой на видеоигру «Resident Evil 2» (1998), где оружейный магазин Кендо был одним из первых мест, куда мог попасть игрок.
Внешний вид вертолета, который доставляет оружие Немезису, очень напоминает вертолет из видеоигры «Resident Evil 2» (1998), на котором прилетал мистер Икс.
Анджела Эшфорд (Софи Васасо) очень похожа на Шайри Биркин из видеоигры «Resident Evil 2» (1998).
Сцена, в которой члены спецотряда окружены зомби на перекрестке, — это почти покадровое воспроизведение сцены из видеоигры «Resident Evil 3: Nemesis» (1999).
В фильме Джилл Валентайн одета в точно такую же одежду, как и в игре «Resident Evil 3: Nemesis» (1999).
Джилл также использует газовую плиту для взрыва в видеоигре «Resident Evil 3: Nemesis» (1999).
Сцена, в которой Элис бежит по стеклянному холлу под обстрелом вертолета, идентична начальной сцене из «Resident Evil Code: Veronica» (2000).
Семья Эшфордов основала корпорацию Umbrella (об этом говорится в «Resident Evil Code: Veronica» (2000)).
Сцена, в которой Элис бросает дробовик, а затем в падении ловит его в сантиметрах от пола, — покадровое воспроизведение начальной сцены из «Resident Evil Code: Veronica» (2000), где Клэр Редфилд делает такой же трюк.
Начальная сцена, где Элис просыпается в больнице и до момента, когда она перезаряжает дробовик, целиком состоит из кадров первого фильма.
На DVD для первого региона содержится около 12 минут удаленных сцен.
По словам Пола Андерсона, Снуп Дог должен был исполнить роль Эл Джея, но покинул проект незадолго до начала съёмок.
Когда сотрудники компании Umbrella эвакуируют людей из первого дома, то на экране телевизора можно заметить рекламу косметического продукта «Regenerate», кадры для которой были взяты из тизера к фильму.
Тизер фильма специально был выдержан в ключе роликов, рекламирующих косметические продукты. В данном ролике говорилось, что в новом креме для кожи содержатся Т-клетки. В фильмах и видеоиграх мутации начались из-за Т-вируса. В тизере не было ни одного кадра из второго фильма, он целиком состоял из кадров, специально снятых для данного ролика, либо из кадров первого фильма.
Эмили Бергл должна была сыграть Клэр Редфилд, но впоследствии покинула проект.
Костюм Немезиса весил около 30 фунтов (примерно 13,6 кг.). Его пулемет, который он держит одной рукой, весил 65 фунтов (29,5 кг).
Строительство декораций церкви заняло семь недель.
Слово «зомби» ни разу не произносится по ходу действия фильма. Однако, его можно заметить на финальных титрах.
Кадр в концовке фильма, в котором зомби поднимают головы, чтобы посмотреть на летящую ракету, — покадровое воспроизведение концовки «Resident Evil 3: Nemesis» (1999).
Режиссёр фильма Александр Уитт сыграл камео в роли снайпера на крыше мэрии Раккун сити.
Бен Муди, бывший ведущий гитарист в рок-группе «Evanescence», появляется в одном из эпизодов фильма как зомби, что упоминается в комментариях на DVD.
Тоби Магуайр и Джош Хартнетт должны были сыграть Криса Редфилда и Леона Кеннеди.</span>

<span class="post-font-serif1">Качество: BDRip / рип с BDRemux 1080p
Формат: MP4
Видео кодек: H.264
Аудио кодек: AAC
Видео: 960x400 AR:2.40 1683 kbps 23.976 fps
Аудио №1: [Russian] 2ch 48 kHz 128 kbps - [Dub] Профессиональный (полное дублированние) Парадиз-ВС
Аудио №2: [Russian] 2ch 48 kHz 128 kbps - [DVO] Профессиональный (двухголосый, закадровый) Tycoon studio (присутствует ненормативная лексика)
Аудио №3: [Russian] 2ch 48 kHz 128 kbps - [DVO] Профессиональный (двухголосый, закадровый) Петр Гланц и Инна Королёва
Аудио №4: [Ukrainian] 2ch 48 kHz 128 kbps - [MVO] Профессиональный (многоголосый, закадровый) ICTV
Аудио №5: [Russian] 2ch 48 kHz 128 kbps - [VO] Авторский (одноголосый, закадровый) Юрий Живов
Аудио №6: [English] 2ch 48 kHz 128 kbps - Оригинальная дорожка Английский</span>
avs [info]: 960x400p 1:1 @ 24000/1001 fps (cfr)
x264 [info]: using SAR=1/1
x264 [info]: using cpu capabilities: MMX2 SSE2Fast SSSE3 SSE4.2 AVX FMA3 AVX2 LZCNT BMI2
x264 [info]: profile High, level 4.1

x264 [info]: frame I:1307 Avg QP:16.00 size: 43914
x264 [info]: frame P:36201 Avg QP:19.81 size: 15605
x264 [info]: frame B:97444 Avg QP:21.96 size: 5527
x264 [info]: consecutive B-frames: 5.8% 5.9% 14.4% 22.8% 14.6% 26.3% 4.4% 1.3% 1.6% 0.8% 0.8% 1.3%
x264 [info]: mb I I16..4: 7.5% 70.5% 22.0%
x264 [info]: mb P I16..4: 2.1% 15.0% 2.3% P16..4: 31.8% 32.7% 7.5% 0.0% 0.0% skip: 8.6%
x264 [info]: mb B I16..4: 0.1% 1.5% 0.2% B16..8: 34.0% 18.3% 2.6% direct: 4.8% skip:38.5% L0:44.8% L1:44.2% BI:11.0%
x264 [info]: 8x8 transform intra:76.8% inter:65.5%
x264 [info]: direct mvs spatial:97.1% temporal:2.9%
x264 [info]: coded y,uvDC,uvAC intra: 82.2% 77.7% 46.6% inter: 22.7% 20.1% 5.2%
x264 [info]: i16 v,h,dc,p: 17% 15% 7% 62%
x264 [info]: i8 v,h,dc,ddl,ddr,vr,hd,vl,hu: 8% 7% 5% 11% 15% 14% 14% 13% 13%
x264 [info]: i4 v,h,dc,ddl,ddr,vr,hd,vl,hu: 11% 9% 5% 10% 15% 14% 13% 11% 13%
x264 [info]: i8c dc,h,v,p: 34% 27% 20% 19%
x264 [info]: Weighted P-Frames: Y:22.9% UV:15.8%
x264 [info]: ref P L0: 48.1% 8.4% 19.1% 8.0% 5.2% 3.7% 3.2% 1.8% 1.8% 0.6% 0.1%
x264 [info]: ref B L0: 76.3% 11.3% 5.4% 2.9% 1.7% 1.3% 0.9% 0.3%
x264 [info]: ref B L1: 95.0% 5.0%
x264 [info]: kb/s:1650.04

encoded 134952 frames, 15.56 fps, 1650.04 kb/s
GeneralComplete name : D:\Torrents\Resident Evil Pentalogy.2002-2012.BDRip.x264.960x\Resident Evil Apocalypse.2004.BDRip.x264.960x.rip by Frost O.S.mp4Format : MPEG-4Format profile : Base MediaCodec ID : isom (isom/avc1/iso2)File size : 1.60 GiBDuration : 1 h 33 minOverall bit rate mode : VariableOverall bit rate : 2 444 kb/sMovie name : Resident Evil Apocalypse 2004 BDRip x264 960x rip by Frost O SGenre : ActionContentType : Short FilmEncoded date : UTC 2017-02-14 15:43:39Tagged date : UTC 2017-02-14 15:46:06Writing application : MkvToMp4 version: 0.224 (x64)Cover : YesComment : rip by Frost O.S

VideoID : 1Format : AVCFormat/Info : Advanced Video CodecFormat profile : [email protected] settings, CABAC : YesFormat settings, ReFrames : 9 framesCodec ID : avc1Codec ID/Info : Advanced Video CodingDuration : 1 h 33 minBit rate : 1 683 kb/sMaximum bit rate : 5 953 kb/sWidth : 960 pixelsHeight : 400 pixelsDisplay aspect ratio : 2.40:1Frame rate mode : ConstantFrame rate : 23.976 (24000/1001) FPSColor space : YUVChroma subsampling : 4:2:0Bit depth : 8 bitsScan type : ProgressiveBits/(Pixel*Frame) : 0.183Stream size : 1.08 GiB (68%)Writing library : x264 core 148 r2705 3f5ed56Encoding settings : cabac=1 / ref=9 / deblock=1:-2:-2 / analyse=0x3:0x113 / me=umh / subme=11 / psy=1 / psy_rd=0.80:0.00 / mixed_ref=1 / me_range=32 / chroma_me=1 / trellis=2 / 8x8dct=1 / cqm=0 / deadzone=21,11 / fast_pskip=0 / chroma_qp_offset=-2 / threads=6 / lookahead_threads=1 / sliced_threads=0 / nr=0 / decimate=0 / interlaced=0 / bluray_compat=0 / constrained_intra=0 / bframes=11 / b_pyramid=2 / b_adapt=2 / b_bias=0 / direct=3 / weightb=1 / open_gop=0 / weightp=2 / keyint=250 / keyint_min=23 / scenecut=40 / intra_refresh=0 / rc=2pass / mbtree=0 / bitrate=1683 / ratetol=1.0 / qcomp=0.70 / qpmin=0 / qpmax=69 / qpstep=4 / cplxblur=20.0 / qblur=0.5 / ip_ratio=1.40 / pb_ratio=1.30 / aq=3:0.70Language : EnglishEncoded date : UTC 2017-02-14 15:43:39Tagged date : UTC 2017-02-14 15:44:34Color range : LimitedColor primaries : BT.709Transfer characteristics : BT.709Matrix coefficients : BT.709

Audio #1ID : 2Format : AACFormat/Info : Advanced Audio CodecFormat profile : LCCodec ID : 40Duration : 1 h 33 minBit rate mode : VariableBit rate : 128 kb/sMaximum bit rate : 135 kb/sChannel(s) : 2 channelsChannel positions : Front: L RSampling rate : 48.0 kHzFrame rate : 46.875 FPS (1024 spf)Compression mode : LossyStream size : 85.9 MiB (5%)Title : Dub_ Paradiz_BC / Dub_ Paradiz_BCLanguage : RussianDefault : YesAlternate group : 1Encoded date : UTC 2017-02-14 15:44:04Tagged date : UTC 2017-02-14 15:44:34

Audio #2ID : 3Format : AACFormat/Info : Advanced Audio CodecFormat profile : LCCodec ID : 40Duration : 1 h 33 minBit rate mode : VariableBit rate : 128 kb/sMaximum bit rate : 135 kb/sChannel(s) : 2 channelsChannel positions : Front: L RSampling rate : 48.0 kHzFrame rate : 46.875 FPS (1024 spf)Compression mode : LossyStream size : 85.9 MiB (5%)Title : DVO_ Tycoon studio / DVO_ Tycoon studioLanguage : RussianDefault : NoAlternate group : 1Encoded date : UTC 2017-02-14 15:44:10Tagged date : UTC 2017-02-14 15:44:34

Audio #3ID : 4Format : AACFormat/Info : Advanced Audio CodecFormat profile : LCCodec ID : 40Duration : 1 h 33 minBit rate mode : VariableBit rate : 128 kb/sMaximum bit rate : 135 kb/sChannel(s) : 2 channelsChannel positions : Front: L RSampling rate : 48.0 kHzFrame rate : 46.875 FPS (1024 spf)Compression mode : LossyStream size : 85.9 MiB (5%)Title : DVO_ Glanz_Koroleva / DVO_ Glanz_KorolevaLanguage : RussianDefault : NoAlternate group : 1Encoded date : UTC 2017-02-14 15:44:14Tagged date : UTC 2017-02-14 15:44:34

Audio #4ID : 5Format : AACFormat/Info : Advanced Audio CodecFormat profile : LCCodec ID : 40Duration : 1 h 33 minBit rate mode : VariableBit rate : 128 kb/sMaximum bit rate : 135 kb/sChannel(s) : 2 channelsChannel positions : Front: L RSampling rate : 48.0 kHzFrame rate : 46.875 FPS (1024 spf)Compression mode : LossyStream size : 85.9 MiB (5%)Title : MVO_ ICTV / MVO_ ICTVLanguage : UkrainianDefault : NoAlternate group : 1Encoded date : UTC 2017-02-14 15:44:19Tagged date : UTC 2017-02-14 15:44:34

Audio #5ID : 6Format : AACFormat/Info : Advanced Audio CodecFormat profile : LCCodec ID : 40Duration : 1 h 33 minBit rate mode : VariableBit rate : 128 kb/sMaximum bit rate : 135 kb/sChannel(s) : 2 channelsChannel positions : Front: L RSampling rate : 48.0 kHzFrame rate : 46.875 FPS (1024 spf)Compression mode : LossyStream size : 85.9 MiB (5%)Title : VO_ Zhuvov / VO_ ZhuvovLanguage : RussianDefault : NoAlternate group : 1Encoded date : UTC 2017-02-14 15:44:24Tagged date : UTC 2017-02-14 15:44:34

Audio #6ID : 7Format : AACFormat/Info : Advanced Audio CodecFormat profile : LCCodec ID : 40Duration : 1 h 33 minBit rate mode : VariableBit rate : 128 kb/sMaximum bit rate : 135 kb/sChannel(s) : 2 channelsChannel positions : Front: L RSampling rate : 48.0 kHzFrame rate : 46.875 FPS (1024 spf)Compression mode : LossyStream size : 85.9 MiB (5%)Title : Original / OriginalLanguage : EnglishDefault : NoAlternate group : 1Encoded date : UTC 2017-02-14 15:44:29Tagged date : UTC 2017-02-14 15:44:34

Text #1ID : 8Format : Timed TextMuxing mode : sbtlCodec ID : tx3gDuration : 1 h 28 minBit rate mode : VariableBit rate : 67 b/sStream size : 43.4 KiB (0%)Language : RussianDefault : YesForced : NoAlternate group : 2Encoded date : UTC 2017-02-14 15:44:34Tagged date : UTC 2017-02-14 15:44:34

Text #2ID : 9Format : Timed TextMuxing mode : sbtlCodec ID : tx3gDuration : 1 h 28 minBit rate mode : VariableBit rate : 33 b/sStream size : 21.7 KiB (0%)Language : EnglishDefault : NoForced : NoAlternate group : 2Encoded date : UTC 2017-02-14 15:44:34Tagged date : UTC 2017-02-14 15:44:34
<span class="post-font-serif1">Обитель зла 3: Вымирание / Resident Evil: Extinction</span>

<span class="post-font-serif1">Год выпуска: 2007
Страна: Германия, США, Франция, Австралия, Великобритания
Жанр: ужасы, фантастика, боевик, триллер
Продолжительность: 01:34:05
Перевод №1: русский Профессиональный (полное дублирование) Парадиз-ВС
Перевод №2: украинский Профессиональный (многоголосый, закадровый) ICTV
Перевод №3: русский Авторский (одноголосый, закадровый) Юрий Живов
Оригинальная дорожка: Есть
Cубтитры: руские, английские (отключаемые "softsub")</span>
<span class="post-font-serif1">Режиссеры: Рассел Малкэй / Russell Mulcahy</span>
<span class="post-font-serif1">В ролях: Милла Йовович, Одед Фер, Эли Лартер, Айэйн Глен, Ашанти, Кристофер Иган, Спенсер Лок, Мэттью Мэрсден, Линден Эшби, Джейсон О'Мара и другие .</span>
<span class="post-font-serif1">Описание: Элис, не раз уже спасавшая мир от смертельных вирусов и неминуемой гибели, вновь взялась за оружие. На этот раз ей предстоит сразиться с корпорацией «Амбрелла», работающей над реализацией зверского антигуманного проекта. Коварные политики и прагматичные ученые стремятся уничтожить людей и заменить их на более «совершенные» создания, заселив Землю неуязвимыми бессмертными клонами…</span>
<span class="post-font-serif1">Релиз группы </span>
<span class="post-font-serif1">Фильм снят по мотивам серии компьютерных игр «Resident Evil» (1996 — н. в., Capcom).
Главная героиня фильма (девушка Элис) предстает перед зрителями в костюмах, разработанных самой Милой Йовович — звезда с недавних пор стала ещё и дизайнером модной одежды.
Съёмки проходили с 17 мая 2006 года в Мексике. Условия работы были настолько тяжёлыми, что Рассел Малкэй попал в больницу из-за обезвоживания и истощения организма.
Художником-постановщиком на картине был лауреат «Оскара» Эухенио Кабальеро («Лабиринт Фавна»). Многие идеи он почерпнул из видеоигры «Обитель зла-4».
Сцена, в которой на бронированный школьный автобус с выжившими людьми нападает стая заражённых вирусом ворон-зомби, служит отсылкой к знаменитому фильму Альфреда Хичкока «Птицы».
Первоначальное название фильма было «Afterlife», однако позднее подзаголовок фильма был переименован на «Extinction», режиссером картины должен был стать Пол Андерсон.
В сцене атаки стаи птиц-зомби было использовано лишь 4 настоящих ворона, все остальные были «дорисованы» на компьютере.
Два ножа в руках Элис — идея Рона Балики (Ron Balicki), тренера по единоборствам Миллы Йовович.
Поначалу картину хотели снимать в пустынных областях Австралии, но затем было решено перенести съемки в Мексику.[/aling]</span>

<span class="post-font-serif1">Качество: BDRip / рип с BDRemux 1080p
Формат: MP4
Видео кодек: H.264
Аудио кодек: AAC
Видео: 960x402 AR:2.40 1740 kbps 23.976 fps
Аудио №1: [Russian] 2ch 48 kHz 128 kbps - [Dub] Профессиональный (полное дублированние) Парадиз-ВС
Аудио №2: [Ukrainian] 2ch 48 kHz 128 kbps - [MVO] Профессиональный (многоголосый, закадровый) ICTV
Аудио №3: [Russian] 2ch 48 kHz 128 kbps - [VO] Авторский (одноголосый, закадровый) Юрий Живов
Аудио №4: [English] 2ch 48 kHz 128 kbps - Оригинальная дорожка Английский</span>
avs [info]: 960x402p 1:1 @ 2997/125 fps (cfr)
x264 [info]: using SAR=1/1
x264 [info]: using cpu capabilities: MMX2 SSE2Fast SSSE3 SSE4.2 AVX FMA3 AVX2 LZCNT BMI2
x264 [info]: profile High, level 4.1

x264 [info]: frame I:1202 Avg QP:17.46 size: 51888
x264 [info]: frame P:35970 Avg QP:21.08 size: 16568
x264 [info]: frame B:98188 Avg QP:22.62 size: 5796
x264 [info]: consecutive B-frames: 5.2% 7.8% 10.7% 24.5% 15.7% 24.0% 5.6% 3.5% 1.7% 1.5%
x264 [info]: mb I I16..4: 8.8% 64.7% 26.5%
x264 [info]: mb P I16..4: 1.1% 10.4% 2.6% P16..4: 31.3% 34.6% 10.3% 0.0% 0.0% skip: 9.7%
x264 [info]: mb B I16..4: 0.1% 1.3% 0.4% B16..8: 33.9% 17.7% 3.0% direct: 4.1% skip:39.5% L0:43.3% L1:43.8% BI:12.9%
x264 [info]: 8x8 transform intra:71.5% inter:62.7%
x264 [info]: direct mvs spatial:95.9% temporal:4.1%
x264 [info]: coded y,uvDC,uvAC intra: 80.7% 76.0% 44.9% inter: 22.4% 13.8% 4.2%
x264 [info]: i16 v,h,dc,p: 23% 16% 7% 55%
x264 [info]: i8 v,h,dc,ddl,ddr,vr,hd,vl,hu: 13% 7% 5% 10% 14% 13% 14% 12% 13%
x264 [info]: i4 v,h,dc,ddl,ddr,vr,hd,vl,hu: 27% 7% 5% 7% 12% 11% 11% 9% 10%
x264 [info]: i8c dc,h,v,p: 31% 29% 22% 18%
x264 [info]: Weighted P-Frames: Y:16.7% UV:11.5%
x264 [info]: ref P L0: 51.4% 11.4% 16.0% 6.1% 4.6% 3.5% 3.0% 1.7% 1.7% 0.4% 0.1%
x264 [info]: ref B L0: 75.5% 11.1% 5.8% 2.8% 2.0% 1.6% 1.0% 0.3%
x264 [info]: ref B L1: 94.6% 5.4%
x264 [info]: kb/s:1739.26

encoded 135360 frames, 15.27 fps, 1739.26 kb/s
GeneralComplete name : D:\Torrents\Resident Evil Pentalogy.2002-2012.BDRip.x264.960x\Resident Evil Extinction.2007.BDRip.x264.960x.rip by Frost O.S.mp4Format : MPEG-4Format profile : Base MediaCodec ID : isom (isom/avc1/iso2)File size : 1.49 GiBDuration : 1 h 34 minOverall bit rate mode : VariableOverall bit rate : 2 270 kb/sMovie name : Resident Evil Extinction 2007 BDRip x264 960x rip by Frost O SGenre : ActionContentType : Short FilmEncoded date : UTC 2017-02-14 15:54:05Tagged date : UTC 2017-02-14 15:56:11Writing application : MkvToMp4 version: 0.224 (x64)Cover : YesComment : rip by Frost O.S

VideoID : 1Format : AVCFormat/Info : Advanced Video CodecFormat profile : [email protected] settings, CABAC : YesFormat settings, ReFrames : 9 framesCodec ID : avc1Codec ID/Info : Advanced Video CodingDuration : 1 h 34 minBit rate : 1 740 kb/sMaximum bit rate : 9 054 kb/sWidth : 960 pixelsHeight : 402 pixelsDisplay aspect ratio : 2.40:1Frame rate mode : ConstantFrame rate : 23.976 (24000/1001) FPSOriginal frame rate : 23.976 (23976/1000) FPSColor space : YUVChroma subsampling : 4:2:0Bit depth : 8 bitsScan type : ProgressiveBits/(Pixel*Frame) : 0.188Stream size : 1.14 GiB (77%)Writing library : x264 core 148 r2705 3f5ed56Encoding settings : cabac=1 / ref=9 / deblock=1:-2:-2 / analyse=0x3:0x113 / me=umh / subme=11 / psy=1 / psy_rd=0.90:0.00 / mixed_ref=1 / me_range=32 / chroma_me=1 / trellis=2 / 8x8dct=1 / cqm=0 / deadzone=21,11 / fast_pskip=0 / chroma_qp_offset=-2 / threads=6 / lookahead_threads=1 / sliced_threads=0 / nr=0 / decimate=0 / interlaced=0 / bluray_compat=0 / constrained_intra=0 / bframes=9 / b_pyramid=2 / b_adapt=2 / b_bias=0 / direct=3 / weightb=1 / open_gop=0 / weightp=2 / keyint=250 / keyint_min=23 / scenecut=40 / intra_refresh=0 / rc=2pass / mbtree=0 / bitrate=1740 / ratetol=1.0 / qcomp=0.70 / qpmin=0 / qpmax=69 / qpstep=4 / cplxblur=20.0 / qblur=0.5 / ip_ratio=1.40 / pb_ratio=1.30 / aq=3:0.40Language : EnglishEncoded date : UTC 2017-02-14 15:54:05Tagged date : UTC 2017-02-14 15:54:58Color range : LimitedColor primaries : BT.709Transfer characteristics : BT.709Matrix coefficients : BT.709

Audio #1ID : 2Format : AACFormat/Info : Advanced Audio CodecFormat profile : LCCodec ID : 40Duration : 1 h 34 minBit rate mode : VariableBit rate : 128 kb/sMaximum bit rate : 135 kb/sChannel(s) : 2 channelsChannel positions : Front: L RSampling rate : 48.0 kHzFrame rate : 46.875 FPS (1024 spf)Compression mode : LossyStream size : 86.1 MiB (6%)Title : Dub_ Paradiz_BC / Dub_ Paradiz_BCLanguage : RussianDefault : YesAlternate group : 1Encoded date : UTC 2017-02-14 15:54:36Tagged date : UTC 2017-02-14 15:54:58

Audio #2ID : 3Format : AACFormat/Info : Advanced Audio CodecFormat profile : LCCodec ID : 40Duration : 1 h 34 minBit rate mode : VariableBit rate : 128 kb/sMaximum bit rate : 132 kb/sChannel(s) : 2 channelsChannel positions : Front: L RSampling rate : 48.0 kHzFrame rate : 46.875 FPS (1024 spf)Compression mode : LossyStream size : 86.1 MiB (6%)Title : MVO_ ICTV / MVO_ ICTVLanguage : UkrainianDefault : NoAlternate group : 1Encoded date : UTC 2017-02-14 15:54:43Tagged date : UTC 2017-02-14 15:54:58

Audio #3ID : 4Format : AACFormat/Info : Advanced Audio CodecFormat profile : LCCodec ID : 40Duration : 1 h 34 minBit rate mode : VariableBit rate : 128 kb/sMaximum bit rate : 135 kb/sChannel(s) : 2 channelsChannel positions : Front: L RSampling rate : 48.0 kHzFrame rate : 46.875 FPS (1024 spf)Compression mode : LossyStream size : 86.1 MiB (6%)Title : VO_ Zhuvov / VO_ ZhuvovLanguage : RussianDefault : NoAlternate group : 1Encoded date : UTC 2017-02-14 15:54:47Tagged date : UTC 2017-02-14 15:54:58

Audio #4ID : 5Format : AACFormat/Info : Advanced Audio CodecFormat profile : LCCodec ID : 40Duration : 1 h 34 minBit rate mode : VariableBit rate : 128 kb/sMaximum bit rate : 135 kb/sChannel(s) : 2 channelsChannel positions : Front: L RSampling rate : 48.0 kHzFrame rate : 46.875 FPS (1024 spf)Compression mode : LossyStream size : 86.1 MiB (6%)Title : Original / OriginalLanguage : EnglishDefault : NoAlternate group : 1Encoded date : UTC 2017-02-14 15:54:52Tagged date : UTC 2017-02-14 15:54:58

Text #1ID : 6Format : Timed TextMuxing mode : sbtlCodec ID : tx3gDuration : 1 h 29 minBit rate mode : VariableBit rate : 50 b/sStream size : 32.9 KiB (0%)Language : RussianDefault : YesForced : NoAlternate group : 2Encoded date : UTC 2017-02-14 15:54:58Tagged date : UTC 2017-02-14 15:54:58

Text #2ID : 7Format : Timed TextMuxing mode : sbtlCodec ID : tx3gDuration : 1 h 33 minBit rate mode : VariableBit rate : 30 b/sStream size : 20.5 KiB (0%)Language : EnglishDefault : NoForced : NoAlternate group : 2Encoded date : UTC 2017-02-14 15:54:58Tagged date : UTC 2017-02-14 15:54:58
<span class="post-font-serif1">Обитель зла 4: Жизнь после смерти / Resident Evil: Afterlife</span>

<span class="post-font-serif1">Год выпуска: 2010
Страна: Германия, Франция, США, Канада
Жанр: зомби-экшн
Продолжительность: 01:36:52
Перевод №1: русский Профессиональный (полное дублирование) Blu-Ray CEE
Перевод №2: украинский Профессиональный (полное дублирование) R5
Перевод №3: русский Авторский (одноголосый, закадровый) Александр Дасевич, NovaFilm
Оригинальная дорожка: Есть
Cубтитры: руские, английские (отключаемые "softsub")</span>
<span class="post-font-serif1">Режиссер: Пол У. С. Андерсон / Paul W.S. Anderson</span>
<span class="post-font-serif1">В ролях: Милла Йовович, Эли Лартер, Вентворт Миллер, Ким Коутс, Шоун Робертс, Серджо Перис-Менчета, Спенсер Лок, Борис Коджо, Сиенна Гиллори, Кейси Барнфилд и другие .</span>
<span class="post-font-serif1">Описание: Элис продолжает свой путь в мире, поражённом вирусной инфекцией, превращающей людей в нежить. Героиня ищет оставшихся в живых, чтобы вывести их в безопасное место. Её смертельная битва с корпорацией Амбрелла выходит на новый уровень…</span>
<span class="post-font-serif1">Релиз группы </span>
<span class="post-font-serif1">Фильм снят по мотивам серии компьютерных игр «Resident Evil» (1996 — н. в., Capcom).
Cъёмки четвертого фильма велись с сентября по декабрь и проходили одновременно на двух континентах.
Когда Элис делает видеозапись на бревне около вертолета, ее камера показывает координаты — 61 13° с. ш. и 149 54° з. д. В реальности эти координаты принадлежат побережью города Анкоридж, крупнейшего города Аляски.
Самолёт на котором летает Элис — советский УТС начальной подготовки Як-52.
В сцене, где Элис, Клэр и Крис сражаются с Вескером, последний пытается «съесть» Элис с помощью паукообразных клешней-щупалец изо рта. Это отсылка к игре Resident Evil 5, где зараженные паразитами жители Африки также «испускают» изо рта щупальца паразитов. Однако в отличие от фильма, в играх серии Вескер был носителем вируса, но не паразита</span>

<span class="post-font-serif1">Когда Элис в начале фильма дерется с охранниками в бункере, убегая от них, заметно, что у нее сапоги на каблуках. Когда она отталкивается от плеча одного из охранников и крутится на лету, видно, что у нее уже другие сапоги, с плоской подошвой. Когда она всех убивает и ее показывают издалека, на ней снова сапоги на каблуках.
Когда Элис находится в душевой, при ближнем плане вода из душа идет, при смене на дальний план, звук воды есть, а воды нет, затем при ближнем плане вода снова есть.</span>

<span class="post-font-serif1">Качество: BDRip / рип с BDRemux 1080p
Формат: MP4
Видео кодек: H.264
Аудио кодек: AAC
Видео: 960x398 AR:2.40 1740 kbps 23.976 fps
Аудио №1: [Russian] 2ch 48 kHz 128 kbps - [Dub] Профессиональный (полное дублированние) Blu-Ray CEE
Аудио №2: [Ukrainian] 2ch 48 kHz 128 kbps - [Dub] Профессиональный (полное дублированние) R5
Аудио №3: [Russian] 2ch 48 kHz 128 kbps - [VO] Авторский (одноголосый, закадровый) Александр Дасевич, NovaFilm
Аудио №4: [English] 2ch 48 kHz 128 kbps - Оригинальная дорожка Английский</span>
avs [info]: 960x398p 1:1 @ 2997/125 fps (cfr)
x264 [info]: using SAR=1/1
x264 [info]: using cpu capabilities: MMX2 SSE2Fast SSSE3 SSE4.2 AVX FMA3 AVX2 LZCNT BMI2
x264 [info]: profile High, level 4.1

x264 [info]: frame I:1238 Avg QP:15.74 size: 53791
x264 [info]: frame P:33138 Avg QP:19.25 size: 16929
x264 [info]: frame B:104992 Avg QP:21.26 size: 6058
x264 [info]: consecutive B-frames: 3.4% 4.3% 8.4% 30.1% 15.8% 23.2% 4.5% 3.8% 2.3% 1.5% 1.0% 1.7%
x264 [info]: mb I I16..4: 6.3% 66.0% 27.7%
x264 [info]: mb P I16..4: 1.1% 7.6% 1.7% P16..4: 31.8% 35.6% 12.7% 0.0% 0.0% skip: 9.6%
x264 [info]: mb B I16..4: 0.1% 1.1% 0.2% B16..8: 32.4% 18.0% 3.4% direct: 5.4% skip:39.5% L0:43.5% L1:42.1% BI:14.4%
x264 [info]: 8x8 transform intra:72.6% inter:58.2%
x264 [info]: direct mvs spatial:94.5% temporal:5.5%
x264 [info]: coded y,uvDC,uvAC intra: 83.9% 70.5% 42.8% inter: 23.0% 14.1% 5.1%
x264 [info]: i16 v,h,dc,p: 32% 18% 6% 44%
x264 [info]: i8 v,h,dc,ddl,ddr,vr,hd,vl,hu: 10% 9% 7% 9% 13% 14% 13% 12% 13%
x264 [info]: i4 v,h,dc,ddl,ddr,vr,hd,vl,hu: 13% 11% 8% 8% 13% 13% 12% 10% 11%
x264 [info]: i8c dc,h,v,p: 33% 32% 20% 15%
x264 [info]: Weighted P-Frames: Y:14.7% UV:9.1%
x264 [info]: ref P L0: 50.1% 11.1% 14.8% 6.4% 4.7% 4.1% 3.1% 1.9% 1.7% 1.6% 0.4% 0.0%
x264 [info]: ref B L0: 71.3% 11.2% 6.0% 3.1% 2.6% 2.1% 2.4% 0.8% 0.4%
x264 [info]: ref B L1: 93.9% 6.1%
x264 [info]: kb/s:1739.04

encoded 139368 frames, 15.33 fps, 1739.04 kb/s
GeneralComplete name : D:\Torrents\Resident Evil Pentalogy.2002-2012.BDRip.x264.960x\Resident Evil Afterlife.2010.BDRip.x264.960x.rip by Frost O.S.mp4Format : MPEG-4Format profile : Base MediaCodec ID : isom (isom/avc1/iso2)File size : 1.54 GiBDuration : 1 h 36 minOverall bit rate mode : VariableOverall bit rate : 2 270 kb/sMovie name : Resident Evil Afterlife 2010 BDRip x264 960x rip by Frost O SGenre : ActionContentType : Short FilmEncoded date : UTC 2017-02-14 16:03:25Tagged date : UTC 2017-02-14 16:06:09Writing application : MkvToMp4 version: 0.224 (x64)Cover : YesComment : rip by Frost O.S

VideoID : 1Format : AVCFormat/Info : Advanced Video CodecFormat profile : [email protected] settings, CABAC : YesFormat settings, ReFrames : 10 framesCodec ID : avc1Codec ID/Info : Advanced Video CodingDuration : 1 h 36 minBit rate : 1 740 kb/sMaximum bit rate : 8 406 kb/sWidth : 960 pixelsHeight : 398 pixelsDisplay aspect ratio : 2.40:1Frame rate mode : ConstantFrame rate : 23.976 (24000/1001) FPSOriginal frame rate : 23.976 (23976/1000) FPSColor space : YUVChroma subsampling : 4:2:0Bit depth : 8 bitsScan type : ProgressiveBits/(Pixel*Frame) : 0.190Stream size : 1.18 GiB (77%)Writing library : x264 core 148 r2705 3f5ed56Encoding settings : cabac=1 / ref=10 / deblock=1:-2:-2 / analyse=0x3:0x113 / me=umh / subme=11 / psy=1 / psy_rd=1.05:0.00 / mixed_ref=1 / me_range=32 / chroma_me=1 / trellis=2 / 8x8dct=1 / cqm=0 / deadzone=21,11 / fast_pskip=0 / chroma_qp_offset=-2 / threads=6 / lookahead_threads=1 / sliced_threads=0 / nr=0 / decimate=0 / interlaced=0 / bluray_compat=0 / constrained_intra=0 / bframes=11 / b_pyramid=2 / b_adapt=2 / b_bias=0 / direct=3 / weightb=1 / open_gop=0 / weightp=2 / keyint=250 / keyint_min=23 / scenecut=40 / intra_refresh=0 / rc=2pass / mbtree=0 / bitrate=1740 / ratetol=1.0 / qcomp=0.70 / qpmin=0 / qpmax=69 / qpstep=4 / cplxblur=20.0 / qblur=0.5 / ip_ratio=1.40 / pb_ratio=1.30 / aq=3:0.40Language : EnglishEncoded date : UTC 2017-02-14 16:03:25Tagged date : UTC 2017-02-14 16:04:24Color range : LimitedColor primaries : BT.709Transfer characteristics : BT.709Matrix coefficients : BT.709

Audio #1ID : 2Format : AACFormat/Info : Advanced Audio CodecFormat profile : LCCodec ID : 40Duration : 1 h 36 minBit rate mode : VariableBit rate : 128 kb/sMaximum bit rate : 135 kb/sChannel(s) : 2 channelsChannel positions : Front: L RSampling rate : 48.0 kHzFrame rate : 46.875 FPS (1024 spf)Compression mode : LossyStream size : 88.7 MiB (6%)Title : Dub_ Blu_ray CEE / Dub_ Blu_ray CEELanguage : RussianDefault : YesAlternate group : 1Encoded date : UTC 2017-02-14 16:04:00Tagged date : UTC 2017-02-14 16:04:24

Audio #2ID : 3Format : AACFormat/Info : Advanced Audio CodecFormat profile : LCCodec ID : 40Duration : 1 h 36 minBit rate mode : VariableBit rate : 128 kb/sMaximum bit rate : 135 kb/sChannel(s) : 2 channelsChannel positions : Front: L RSampling rate : 48.0 kHzFrame rate : 46.875 FPS (1024 spf)Compression mode : LossyStream size : 88.7 MiB (6%)Title : Dub_ R5 / Dub_ R5Language : UkrainianDefault : NoAlternate group : 1Encoded date : UTC 2017-02-14 16:04:06Tagged date : UTC 2017-02-14 16:04:24

Audio #3ID : 4Format : AACFormat/Info : Advanced Audio CodecFormat profile : LCCodec ID : 40Duration : 1 h 36 minBit rate mode : VariableBit rate : 128 kb/sMaximum bit rate : 135 kb/sChannel(s) : 2 channelsChannel positions : Front: L RSampling rate : 48.0 kHzFrame rate : 46.875 FPS (1024 spf)Compression mode : LossyStream size : 88.7 MiB (6%)Title : VO_ Dasevich_ NovaFilm / VO_ Dasevich_ NovaFilmLanguage : RussianDefault : NoAlternate group : 1Encoded date : UTC 2017-02-14 16:04:12Tagged date : UTC 2017-02-14 16:04:24

Audio #4ID : 5Format : AACFormat/Info : Advanced Audio CodecFormat profile : LCCodec ID : 40Duration : 1 h 36 minBit rate mode : VariableBit rate : 128 kb/sMaximum bit rate : 135 kb/sChannel(s) : 2 channelsChannel positions : Front: L RSampling rate : 48.0 kHzFrame rate : 46.875 FPS (1024 spf)Compression mode : LossyStream size : 88.7 MiB (6%)Title : Original / OriginalLanguage : EnglishDefault : NoAlternate group : 1Encoded date : UTC 2017-02-14 16:04:18Tagged date : UTC 2017-02-14 16:04:24

Text #1ID : 6Format : Timed TextMuxing mode : sbtlCodec ID : tx3gDuration : 6 min 33 sBit rate mode : VariableBit rate : 13 b/sStream size : 663 Bytes (0%)Language : RussianDefault : YesForced : NoAlternate group : 2Encoded date : UTC 2017-02-14 16:04:24Tagged date : UTC 2017-02-14 16:04:24

Text #2ID : 7Format : Timed TextMuxing mode : sbtlCodec ID : tx3gDuration : 1 h 31 minBit rate mode : VariableBit rate : 49 b/sStream size : 32.8 KiB (0%)Language : RussianDefault : NoForced : NoAlternate group : 2Encoded date : UTC 2017-02-14 16:04:24Tagged date : UTC 2017-02-14 16:04:24

Text #3ID : 8Format : Timed TextMuxing mode : sbtlCodec ID : tx3gDuration : 1 h 31 minBit rate mode : VariableBit rate : 55 b/sStream size : 36.4 KiB (0%)Language : RussianDefault : NoForced : NoAlternate group : 2Encoded date : UTC 2017-02-14 16:04:24Tagged date : UTC 2017-02-14 16:04:24

Text #4ID : 9Format : Timed TextMuxing mode : sbtlCodec ID : tx3gDuration : 1 h 36 minBit rate mode : VariableBit rate : 31 b/sStream size : 22.0 KiB (0%)Language : EnglishDefault : NoForced : NoAlternate group : 2Encoded date : UTC 2017-02-14 16:04:24Tagged date : UTC 2017-02-14 16:04:24
<span class="post-font-serif1">Обитель Зла: Возмездие / Resident Evil: Retribution</span>

<span class="post-font-serif1">Год выпуска: 2012
Страна: Германия, Канада, США, Франция
Жанр: зомби-экшн
Продолжительность: 01:35:37
Перевод №1: русский Профессиональный (полное дублирование) Blu-Ray CEE
Перевод №2: украинский Профессиональный (полное дублирование) Blu-Ray CEE
Перевод №3: русский Авторский (одноголосый, закадровый) Андрей Гаврилов
Оригинальная дорожка: Есть
Cубтитры: руские, английские (отключаемые "softsub")</span>
<span class="post-font-serif1">Режиссер: Пол У. С. Андерсон / Paul W.S. Anderson</span>
<span class="post-font-serif1">В ролях: Милла Йовович, Сиенна Гиллори, Мишель Родригес, Ариана Энджинир, Ли Бинбин, Борис Коджо, Йохан Урб, Робин Касянов, Кевин Дюран, Офилио Портильо и другие .</span>
<span class="post-font-serif1">Описание: Смертельный T-вирус, созданный в лабораториях корпорации «Амбрелла», продолжает захватывать Землю, превращая мировое население в легионы пожирающих плоть зомби. Последняя надежда человечества Элис внедряется в самое сердце самой тайной исследовательской базы корпорации и узнает еще больше о собственном таинственном прошлом. Не имея путей к отступлению, Элис продолжает искать виновных в глобальной катастрофе. Вызов, который она принимала в Токио, Нью-Йорке, Вашингтоне и даже в Москве, приводит ее в итоге к взрывающему сознание откровению, которое заставит ее переосмыслить все, что она полагала правдой. С помощью новых союзников и старых друзей, Элис будет сражаться за выживание и убегать из враждебного мира. Отсчет времени начат…</span>
<span class="post-font-serif1">Релиз группы </span>
<span class="post-font-serif1">Фильм снят по мотивам серии компьютерных игр «Resident Evil» (1996 — н. в., Capcom).
Дженсен Эклс пробовался на роль Леона Кеннеди, но позже её получил Йохан Урб.
Ариана Энджинир получила роль Бекки без прослушивания.
Несколько раз во время финальной битвы переломы костей показываются в режиме рентгеновского видения. Такой же приём используется в игре Mortal Kombat 2011 года. Пол У. С. Андерсон снимал фильм «Mortal Kombat» (1995).
В финальной схватке героиня Мишель Родригес вводит себе паразита Las Plagas, который впервые появился в четвёртой части одноимённой игры 2005 года.</span>

<span class="post-font-serif1">Во время съемок погони в Москве номера на Rolls-Royce Phantom «H520SL177RUS».</span>

<span class="post-font-serif1">Качество: BDRip / рип с BDRemux 1080p
Формат: MP4
Видео кодек: H.264
Аудио кодек: AAC
Видео: 960x400 AR:2.40 1740 kbps 23.976 fps
Аудио №1: [Russian] 2ch 48 kHz 128 kbps - [Dub] Профессиональный (полное дублированние) Blu-Ray CEE
Аудио №2: [Ukrainian] 2ch 48 kHz 128 kbps - [Dub] Профессиональный (полное дублированние) Blu-Ray CEE
Аудио №3: [Russian] 2ch 48 kHz 128 kbps - [VO] Авторский (одноголосый, закадровый) Андрей Гаврилов
Аудио №4: [English] 2ch 48 kHz 128 kbps - Оригинальная дорожка Английский</span>
avs [info]: 960x400p 1:1 @ 2997/125 fps (cfr)
x264 [info]: using SAR=1/1
x264 [info]: using cpu capabilities: MMX2 SSE2Fast SSSE3 SSE4.2 AVX FMA3 AVX2 LZCNT BMI2
x264 [info]: profile High, level 4.1

x264 [info]: frame I:1537 Avg QP:16.01 size: 50875
x264 [info]: frame P:33709 Avg QP:19.18 size: 16172
x264 [info]: frame B:102322 Avg QP:21.06 size: 5990
x264 [info]: consecutive B-frames: 3.2% 4.6% 9.0% 37.7% 15.1% 20.0% 4.1% 4.5% 1.1% 0.8%
x264 [info]: mb I I16..4: 8.8% 62.3% 28.9%
x264 [info]: mb P I16..4: 1.3% 9.6% 2.4% P16..4: 31.7% 31.2% 9.5% 0.0% 0.0% skip:14.3%
x264 [info]: mb B I16..4: 0.1% 1.3% 0.3% B16..8: 29.7% 16.7% 3.1% direct: 5.5% skip:43.2% L0:43.4% L1:42.2% BI:14.4%
x264 [info]: 8x8 transform intra:70.6% inter:58.4%
x264 [info]: direct mvs spatial:94.2% temporal:5.8%
x264 [info]: coded y,uvDC,uvAC intra: 82.5% 76.7% 52.4% inter: 21.1% 20.1% 8.9%
x264 [info]: i16 v,h,dc,p: 20% 14% 5% 62%
x264 [info]: i8 v,h,dc,ddl,ddr,vr,hd,vl,hu: 8% 8% 6% 10% 14% 14% 14% 12% 14%
x264 [info]: i4 v,h,dc,ddl,ddr,vr,hd,vl,hu: 12% 11% 6% 9% 14% 14% 13% 10% 12%
x264 [info]: i8c dc,h,v,p: 36% 29% 19% 17%
x264 [info]: Weighted P-Frames: Y:14.8% UV:8.6%
x264 [info]: ref P L0: 49.7% 10.7% 16.6% 6.6% 4.7% 3.6% 5.2% 2.4% 0.4% 0.0%
x264 [info]: ref B L0: 75.7% 10.5% 5.5% 4.1% 1.9% 1.1% 1.2%
x264 [info]: ref B L1: 94.9% 5.1%
x264 [info]: kb/s:1723.66

encoded 137568 frames, 17.01 fps, 1723.66 kb/s
GeneralComplete name : D:\Torrents\Resident Evil Pentalogy.2002-2012.BDRip.x264.960x\Resident Evil Retribution.2012.BDRip.x264.960x.rip by Frost O.S.mp4Format : MPEG-4Format profile : Base MediaCodec ID : isom (isom/avc1/iso2)File size : 1.42 GiBDuration : 1 h 35 minOverall bit rate mode : VariableOverall bit rate : 2 123 kb/sMovie name : Resident Evil Retribution 2012 BDRip x264 960x rip by Frost O SGenre : ActionContentType : Short FilmEncoded date : UTC 2017-02-14 16:15:03Tagged date : UTC 2017-02-14 16:16:51Writing application : MkvToMp4 version: 0.224 (x64)Cover : YesComment : rip by Frost O.S

VideoID : 1Format : AVCFormat/Info : Advanced Video CodecFormat profile : [email protected] settings, CABAC : YesFormat settings, ReFrames : 8 framesCodec ID : avc1Codec ID/Info : Advanced Video CodingDuration : 1 h 35 minBit rate : 1 740 kb/sMaximum bit rate : 9 256 kb/sWidth : 960 pixelsHeight : 400 pixelsDisplay aspect ratio : 2.40:1Frame rate mode : ConstantFrame rate : 23.976 (24000/1001) FPSOriginal frame rate : 23.976 (23976/1000) FPSColor space : YUVChroma subsampling : 4:2:0Bit depth : 8 bitsScan type : ProgressiveBits/(Pixel*Frame) : 0.189Stream size : 1.15 GiB (81%)Writing library : x264 core 148 r2705 3f5ed56Encoding settings : cabac=1 / ref=8 / deblock=1:-2:-2 / analyse=0x3:0x113 / me=umh / subme=11 / psy=1 / psy_rd=0.90:0.00 / mixed_ref=1 / me_range=32 / chroma_me=1 / trellis=2 / 8x8dct=1 / cqm=0 / deadzone=21,11 / fast_pskip=0 / chroma_qp_offset=-2 / threads=6 / lookahead_threads=1 / sliced_threads=0 / nr=0 / decimate=0 / interlaced=0 / bluray_compat=0 / constrained_intra=0 / bframes=9 / b_pyramid=2 / b_adapt=2 / b_bias=0 / direct=3 / weightb=1 / open_gop=0 / weightp=2 / keyint=250 / keyint_min=23 / scenecut=40 / intra_refresh=0 / rc=2pass / mbtree=0 / bitrate=1740 / ratetol=1.0 / qcomp=0.70 / qpmin=0 / qpmax=69 / qpstep=4 / cplxblur=20.0 / qblur=0.5 / ip_ratio=1.40 / pb_ratio=1.30 / aq=3:0.40Language : EnglishEncoded date : UTC 2017-02-14 16:15:03Tagged date : UTC 2017-02-14 16:15:44Color range : LimitedColor primaries : BT.709Transfer characteristics : BT.709Matrix coefficients : BT.709

Audio #1ID : 2Format : AACFormat/Info : Advanced Audio CodecFormat profile : LCCodec ID : 40Duration : 1 h 35 minBit rate mode : VariableBit rate : 128 kb/sMaximum bit rate : 135 kb/sChannel(s) : 2 channelsChannel positions : Front: L RSampling rate : 48.0 kHzFrame rate : 46.875 FPS (1024 spf)Compression mode : LossyStream size : 87.6 MiB (6%)Title : Dub_ Blu_Ray CEE / Dub_ Blu_Ray CEELanguage : RussianDefault : YesAlternate group : 1Encoded date : UTC 2017-02-14 16:15:26Tagged date : UTC 2017-02-14 16:15:44

Audio #2ID : 3Format : AACFormat/Info : Advanced Audio CodecFormat profile : LCCodec ID : 40Duration : 1 h 35 minBit rate mode : VariableBit rate : 128 kb/sMaximum bit rate : 135 kb/sChannel(s) : 2 channelsChannel positions : Front: L RSampling rate : 48.0 kHzFrame rate : 46.875 FPS (1024 spf)Compression mode : LossyStream size : 87.6 MiB (6%)Title : Dub_ Blu_Ray CEE / Dub_ Blu_Ray CEELanguage : UkrainianDefault : NoAlternate group : 1Encoded date : UTC 2017-02-14 16:15:33Tagged date : UTC 2017-02-14 16:15:44

Audio #3ID : 4Format : AACFormat/Info : Advanced Audio CodecFormat profile : LCCodec ID : 40Duration : 1 h 35 minBit rate mode : VariableBit rate : 128 kb/sMaximum bit rate : 135 kb/sChannel(s) : 2 channelsChannel positions : Front: L RSampling rate : 48.0 kHzFrame rate : 46.875 FPS (1024 spf)Compression mode : LossyStream size : 87.6 MiB (6%)Title : Original / OriginalLanguage : EnglishDefault : NoAlternate group : 1Encoded date : UTC 2017-02-14 16:15:38Tagged date : UTC 2017-02-14 16:15:44

Text #1ID : 5Format : Timed TextMuxing mode : sbtlCodec ID : tx3gDuration : 1 h 25 minBit rate mode : VariableBit rate : 45 b/sStream size : 27.8 KiB (0%)Language : RussianDefault : YesForced : NoAlternate group : 2Encoded date : UTC 2017-02-14 16:15:44Tagged date : UTC 2017-02-14 16:15:44

Text #2ID : 6Format : Timed TextMuxing mode : sbtlCodec ID : tx3gDuration : 1 h 28 minBit rate mode : VariableBit rate : 28 b/sStream size : 18.1 KiB (0%)Language : EnglishDefault : NoForced : NoAlternate group : 2Encoded date : UTC 2017-02-14 16:15:44Tagged date : UTC 2017-02-14 16:15:44
<div class="clear" style="height: 8px;"></div>

Трекер:  [ 14-Фев-2017 18:30 ]

  

Скачать .torrent

Размер .torrent файла 21 KB


Размер: 8.29 GB
Хэш (hash) релиза: 7adbfe23b12cf948d2a39f8f7094642dd4d3fdf9

Еще никто не оставлял запись к записи скачать торрент [VIDEO] Обитель зла: Пенталогия Resident Evil: Pentalogy . Будь первым!

!Обратная связь