OpenLoad | The Nursery (2018) | Download

Скачать через торрент [VIDEO] Бриджит Джонс 3 Bridget Joness Baby бесплатно русская версия torrent активатор

Статистика раздачи
Размер:  2.4 GB   |    Зарегистрирован:  1 год 5 месяцев   |    .torrent скачан:  37 раз   |   
Раздают:  1  
   
загрузка...
 
Автор Сообщение

Galfimbul

avatar Galfimbul


Бриджит Джонс 3 / Bridget Jones's Baby
«Её ждут большие перемены»
Премьера: 14 сентября 2016
Оригинальное название: Bridget Jones's Baby
Страна: Ирландия, Великобритания, Франция, США
Жанр: мелодрама, комедия
Возраст: 16+

Режиссер: Шэрон Магуайр / Sharon Maguire

В ролях: Рене Зеллвегер, Колин Фёрт, Патрик Демпси, Джемма Джонс, Джим Бродбент, Салли Филлипс, Джулиан Райнд-Татт, Ширли Хендерсон, Бен Уиллбонд, Пол Бенталл

Описание: Казалось бы, и карьера — в гору, и квартира — в центре Лондона, но она не была бы Бриджит Джонс, если бы не ее способность оказываться не в то время, не в том месте, не с тем мужчиной. И теперь она понятия не имеет, кто отец ее будущего ребенка: обаятельный миллиардер или известный адвокат. Одним словом, Бриджит Джонс в очень интересном положении.

Продолжительность: 02:02:38
Перевод: Дублированный [Лицензия]
Оригинальная дорожка: есть

Автор рипа:

Качество видео: BDRip Исходник: Blu-Ray Remux (1080p) Формат: mp4
Видео кодек: MPEG-4 AVC Аудио кодек: AAC
Видео: 1280x536 (2.40:1) at 23.976 fps, AVC at 2 402 kbps avg, 0.146 bit/pixel
Аудио №1 Rus: 48.0 KHz, AAC, 2 ch, 128.0 Kbps
Аудио №2 Ukr: 48.0 KHz, AAC, 2 ch, 128.0 Kbps
Аудио №2 Eng: 48.0 KHz, AAC, 2 ch, 128.0 Kbps
Субтитры: русские (форсированные, полные), украинские (форсированные)
Навигация по главам: есть
Размер: 2.40 GiB
avs [info]: 1280x536p 1:1 @ 24000/1001 fps (cfr)
x264 [info]: using SAR=1/1
x264 [info]: using cpu capabilities: MMX2 SSE2Fast SSSE3 Cache64
x264 [info]: profile High, level 4.1
x264 [info]: frame I:2143 Avg QP:14.72 size:120569
x264 [info]: frame P:36604 Avg QP:18.08 size: 28212
x264 [info]: frame B:137687 Avg QP:21.05 size: 6673
x264 [info]: consecutive B-frames: 2.3% 1.3% 5.5% 20.7% 18.6% 42.7% 6.5% 2.5%
x264 [info]: mb I I16..4: 7.8% 70.3% 21.9%
x264 [info]: mb P I16..4: 1.2% 6.4% 1.2% P16..4: 43.2% 24.3% 14.6% 0.0% 0.0% skip: 9.2%
x264 [info]: mb B I16..4: 0.1% 0.5% 0.1% B16..8: 42.1% 7.2% 1.9% direct: 3.1% skip:45.0% L0:44.5% L1:46.8% BI: 8.7%
x264 [info]: 8x8 transform intra:72.4% inter:62.9%
x264 [info]: coded y,uvDC,uvAC intra: 85.5% 87.0% 69.4% inter: 16.4% 18.1% 3.3%
x264 [info]: i16 v,h,dc,p: 32% 15% 5% 48%
x264 [info]: i8 v,h,dc,ddl,ddr,vr,hd,vl,hu: 16% 9% 6% 9% 13% 14% 12% 11% 11%
x264 [info]: i4 v,h,dc,ddl,ddr,vr,hd,vl,hu: 15% 9% 4% 9% 14% 14% 12% 11% 11%
x264 [info]: i8c dc,h,v,p: 38% 20% 23% 19%
x264 [info]: Weighted P-Frames: Y:4.0% UV:1.7%
x264 [info]: ref P L0: 49.5% 11.8% 16.8% 6.2% 4.9% 3.5% 3.0% 2.2% 1.9% 0.2% 0.0%
x264 [info]: ref B L0: 76.2% 11.1% 5.5% 2.6% 1.9% 1.4% 0.8% 0.4%
x264 [info]: ref B L1: 92.4% 7.6%
x264 [info]: kb/s:2402.39
encoded 176434 frames, 2.08 fps, 2402.39 kb/s
GeneralFormat : MPEG-4Format profile : Base MediaCodec ID : isom (isom)File size : 2.40 GiBDuration : 2 h 2 minOverall bit rate mode : VariableOverall bit rate : 2 802 kb/sMovie name : Бриджит Джонс 3 | KinoGadgetPerformer : Шэрон МагуайрDirector : Шэрон МагуайрActor : Рене Зеллвегер / Колин Фёрт / Патрик Демпси / Джемма Джонс / Джим Бродбент / Салли Филлипс / Джулиан Райнд-Татт / Ширли Хендерсон / Бен Уиллбонд / Пол БенталлScreenplay by : Хелен Филдинг / Дэн Мазер / Эмма ТомпсонProducer : Тим Беван / Лиза Чейсин / Эрик ФеллнерGenre : Comedy, RomanceContentType : Short FilmRecorded date : 2016Encoded date : UTC 2017-02-14 11:10:45Tagged date : UTC 2017-02-14 11:21:26Cover : YesContentRating : mpaa|R|400|LongDescription : Казалось бы, и карьера — в гору, и квартира — в центре Лондона, но она не была бы Бриджит Джонс, если бы не ее способность оказываться не в то время, не в том месте, не с тем мужчиной. И теперь она понятия не имеет, кто отец ее будущего ребенка: обаятельный миллиардер или известный адвокат. Одним словом, Бриджит Джонс в очень интересном положении.HDVideo : Yes

VideoID : 1Format : AVCFormat/Info : Advanced Video CodecFormat profile : [email protected] settings, CABAC : YesFormat settings, ReFrames : 9 framesCodec ID : avc1Codec ID/Info : Advanced Video CodingDuration : 2 h 2 minBit rate : 2 402 kb/sMaximum bit rate : 27.4 Mb/sWidth : 1 280 pixelsHeight : 536 pixelsDisplay aspect ratio : 2.40:1Frame rate mode : ConstantFrame rate : 23.976 (24000/1001) FPSColor space : YUVChroma subsampling : 4:2:0Bit depth : 8 bitsScan type : ProgressiveBits/(Pixel*Frame) : 0.146Stream size : 2.06 GiB (86%)Writing library : x264 core 148 r2638 7599210Encoding settings : cabac=1 / ref=9 / deblock=1:-1:-1 / analyse=0x3:0x113 / me=umh / subme=9 / psy=1 / psy_rd=1.00:0.00 / mixed_ref=1 / me_range=32 / chroma_me=1 / trellis=2 / 8x8dct=1 / cqm=0 / deadzone=21,11 / fast_pskip=0 / chroma_qp_offset=-2 / threads=3 / lookahead_threads=1 / sliced_threads=0 / nr=0 / decimate=1 / interlaced=0 / bluray_compat=0 / constrained_intra=0 / bframes=7 / b_pyramid=2 / b_adapt=2 / b_bias=0 / direct=1 / weightb=1 / open_gop=0 / weightp=2 / keyint=250 / keyint_min=25 / scenecut=40 / intra_refresh=0 / rc_lookahead=60 / rc=crf / mbtree=1 / crf=18.0 / qcomp=0.60 / qpmin=0 / qpmax=69 / qpstep=4 / vbv_maxrate=62500 / vbv_bufsize=78125 / crf_max=0.0 / nal_hrd=none / filler=0 / ip_ratio=1.40 / aq=1:1.00Encoded date : UTC 2017-02-14 08:34:57Tagged date : UTC 2017-02-14 11:11:51

Audio #1ID : 2Format : AACFormat/Info : Advanced Audio CodecFormat profile : LCCodec ID : 40Duration : 2 h 2 minBit rate mode : VariableBit rate : 128 kb/sMaximum bit rate : 135 kb/sChannel(s) : 2 channelsChannel positions : Front: L RSampling rate : 48.0 kHzFrame rate : 46.875 FPS (1024 spf)Compression mode : LossyStream size : 112 MiB (5%)Title : Dub [license]Language : RussianEncoded date : UTC 2017-02-14 08:44:52Tagged date : UTC 2017-02-14 11:11:51

Audio #2ID : 3Format : AACFormat/Info : Advanced Audio CodecFormat profile : LCCodec ID : 40Duration : 2 h 2 minBit rate mode : VariableBit rate : 128 kb/sMaximum bit rate : 135 kb/sChannel(s) : 2 channelsChannel positions : Front: L RSampling rate : 48.0 kHzFrame rate : 46.875 FPS (1024 spf)Compression mode : LossyStream size : 112 MiB (5%)Title : Dub [license]Language : UkrainianEncoded date : UTC 2017-02-14 09:01:05Tagged date : UTC 2017-02-14 11:11:51

Audio #3ID : 4Format : AACFormat/Info : Advanced Audio CodecFormat profile : LCCodec ID : 40Duration : 2 h 2 minBit rate mode : VariableBit rate : 128 kb/sMaximum bit rate : 135 kb/sChannel(s) : 2 channelsChannel positions : Front: L RSampling rate : 48.0 kHzFrame rate : 46.875 FPS (1024 spf)Compression mode : LossyStream size : 112 MiB (5%)Language : EnglishEncoded date : UTC 2017-02-14 09:21:52Tagged date : UTC 2017-02-14 11:11:51

Text #1ID : 5Format : Timed TextCodec ID : tx3gDuration : 1 h 51 minBit rate mode : VariableBit rate : 3 b/sStream size : 2.68 KiB (0%)Title : ForcedLanguage : RussianForced : NoEncoded date : UTC 2017-02-14 11:11:51Tagged date : UTC 2017-02-14 11:11:51

Text #2ID : 6Format : Timed TextCodec ID : tx3gDuration : 1 h 56 minBit rate mode : VariableBit rate : 130 b/sStream size : 111 KiB (0%)Title : FullLanguage : RussianForced : NoEncoded date : UTC 2017-02-14 11:11:51Tagged date : UTC 2017-02-14 11:11:51

Text #3ID : 7Format : Timed TextCodec ID : tx3gDuration : 1 h 47 minBit rate mode : VariableBit rate : 3 b/sStream size : 2.32 KiB (0%)Title : ForcedLanguage : UkrainianForced : NoEncoded date : UTC 2017-02-14 11:11:51Tagged date : UTC 2017-02-14 11:11:51

Menu00:00:00.000 : 00:00:00.00000:08:49.529 : 00:08:49.52900:16:21.564 : 00:16:21.56400:24:09.657 : 00:24:09.65700:29:54.626 : 00:29:54.62600:34:51.298 : 00:34:51.29800:41:29.237 : 00:41:29.23700:47:42.401 : 00:47:42.40100:52:05.456 : 00:52:05.45600:57:44.836 : 00:57:44.83601:03:38.314 : 01:03:38.31401:08:12.880 : 01:08:12.88001:13:17.476 : 01:13:17.47601:20:48.552 : 01:20:48.55201:27:32.998 : 01:27:32.99801:37:28.176 : 01:37:28.17601:43:18.442 : 01:43:18.44201:48:10.567 : 01:48:10.56701:51:53.665 : 01:51:53.66501:56:07.794 : 01:56:07.794
<a href="tracker.php?rid=39840292" class="postLink"> </a>
<div class="clear" style="height: 8px;"></div>

Трекер:  [ 14-Фев-2017 14:00 ]

  

Скачать .torrent

Размер .torrent файла 12 KB


Размер: 2.4 GB
Хэш (hash) релиза: c6ba8f72c56df7f184033686b1d982b4faddfb8e

Еще никто не оставлял запись к записи скачать торрент [VIDEO] Бриджит Джонс 3 Bridget Joness Baby . Будь первым!

!Обратная связь