where did you go, | Yu Gi Oh Zexal Subtitle Indonesia | Télécharger Part 3

Скачать через торрент [VIDEO] Уиджи. Проклятие доски дьявола Ouija: Origin of Evil бесплатно русская версия torrent активатор

Статистика раздачи
Размер:  1.89 GB   |    Зарегистрирован:  1 год 5 месяцев   |    .torrent скачан:  26 раз   |   
Раздают:  1  
   
загрузка...
 
Автор Сообщение

Galfimbul

avatar Galfimbul


Уиджи. Проклятие доски дьявола / Ouija: Origin of Evil
«Вызывая духов, никогда не знаешь, кто явится на зов»
Год выпуска: 20 октября 2016
Оригинальное название: Ouija: Origin of Evil
Страна: Япония, США
Жанр: ужасы, триллер
Возраст: 16+

Режиссер: Майк Флэнеган / Mike Flanagan

В ролях: Анналиса Бассо, Элизабет Ризер, Лулу Уилсон, Генри Томас, Паркер Мак, Холли Чарлтон, Даг Джонс, Кейт Сигел, Сэм Андерсон

Описание: Спиритическая доска Уиджи никогда не была просто игрой. Она служила порталом в мир мертвых. Столетиями она служила вратами между миром живых и царством мертвых. Но однажды духи выйдут из-под контроля, и первородное зло овладеет душой ребенка…

Продолжительность: 01:38:54
Перевод: Дублированный [Лицензия]
Оригинальная дорожка: есть

Автор рипа:

Качество видео: BDRip Исходник: Blu-Ray Remux (1080p) Формат: mp4
Видео кодек: MPEG-4 AVC Аудио кодек: AAC
Видео: 1280x690 (1.85:1) at 23.976 fps, AVC at 2 474 kbps avg, 0.117 bit/pixel
Аудио №1 Rus: 48.0 KHz, AAC, 2 ch, 128.0 Kbps
Аудио №2 Eng: 48.0 KHz, AAC, 2 ch, 128.0 Kbps
Субтитры: русские (форсированные, полные), английские (полные)
Навигация по главам: есть
Размер: 1.89 GiB
avs [info]: 1280x690p 1:1 @ 24000/1001 fps (cfr)
x264 [info]: using SAR=1/1
x264 [info]: using cpu capabilities: MMX2 SSE2Fast SSSE3 Cache64
x264 [info]: profile High, level 4.1
x264 [info]: frame I:1136 Avg QP:14.74 size:122858
x264 [info]: frame P:25218 Avg QP:17.69 size: 30796
x264 [info]: frame B:115938 Avg QP:19.41 size: 7929
x264 [info]: consecutive B-frames: 1.2% 0.4% 1.9% 7.9% 8.8% 66.3% 7.9% 1.5% 1.2% 1.2% 1.6%
x264 [info]: mb I I16..4: 4.7% 81.3% 14.0%
x264 [info]: mb P I16..4: 0.7% 4.6% 0.6% P16..4: 46.8% 23.9% 16.4% 0.0% 0.0% skip: 7.0%
x264 [info]: mb B I16..4: 0.0% 0.4% 0.0% B16..8: 42.4% 6.0% 0.9% direct: 3.3% skip:46.9% L0:47.1% L1:48.9% BI: 4.0%
x264 [info]: 8x8 transform intra:80.8% inter:65.7%
x264 [info]: coded y,uvDC,uvAC intra: 77.9% 83.9% 67.9% inter: 17.2% 19.4% 3.5%
x264 [info]: i16 v,h,dc,p: 55% 13% 9% 22%
x264 [info]: i8 v,h,dc,ddl,ddr,vr,hd,vl,hu: 23% 11% 29% 4% 7% 7% 6% 7% 6%
x264 [info]: i4 v,h,dc,ddl,ddr,vr,hd,vl,hu: 34% 13% 14% 5% 8% 8% 7% 6% 5%
x264 [info]: i8c dc,h,v,p: 56% 15% 21% 8%
x264 [info]: Weighted P-Frames: Y:4.5% UV:2.6%
x264 [info]: ref P L0: 45.0% 7.8% 19.9% 7.6% 6.4% 4.7% 4.2% 2.2% 2.1% 0.1% 0.0%
x264 [info]: ref B L0: 66.8% 14.5% 7.9% 3.8% 2.8% 2.4% 1.3% 0.4%
x264 [info]: ref B L1: 90.0% 10.0%
x264 [info]: kb/s:2474.20
encoded 142292 frames, 2.25 fps, 2474.20 kb/s
GeneralFormat : MPEG-4Format profile : Base MediaCodec ID : isom (isom)File size : 1.89 GiBDuration : 1 h 38 minOverall bit rate mode : VariableOverall bit rate : 2 742 kb/sMovie name : Уиджи. Проклятие доски дьявола | KinoGadgetPerformer : Майк ФлэнеганDirector : Майк ФлэнеганActor : Анналиса Бассо / Элизабет Ризер / Лулу Уилсон / Генри Томас / Паркер Мак / Холли Чарлтон / Даг Джонс / Кейт Сигел / Сэм АндерсонScreenplay by : Майк Флэнеган / Джефф ХовардProducer : Майкл Бэй / Джейсон Блум / Жанетт БриллGenre : Horror, ThrillerContentType : Short FilmRecorded date : 2016Encoded date : UTC 2017-02-12 06:41:47Tagged date : UTC 2017-02-12 07:07:53Cover : YesContentRating : mpaa|PG-13|300|LongDescription : Спиритическая доска Уиджи никогда не была просто игрой. Она служила порталом в мир мертвых. Столетиями она служила вратами между миром живых и царством мертвых. Но однажды духи выйдут из-под контроля, и первородное зло овладеет душой ребенка…HDVideo : Yes

VideoID : 1Format : AVCFormat/Info : Advanced Video CodecFormat profile : [email protected] settings, CABAC : YesFormat settings, ReFrames : 9 framesCodec ID : avc1Codec ID/Info : Advanced Video CodingDuration : 1 h 38 minBit rate : 2 474 kb/sMaximum bit rate : 11.8 Mb/sWidth : 1 280 pixelsHeight : 690 pixelsDisplay aspect ratio : 1.85:1Frame rate mode : ConstantFrame rate : 23.976 (24000/1001) FPSColor space : YUVChroma subsampling : 4:2:0Bit depth : 8 bitsScan type : ProgressiveBits/(Pixel*Frame) : 0.117Stream size : 1.71 GiB (90%)Writing library : x264 core 148 r2638 7599210Encoding settings : cabac=1 / ref=9 / deblock=1:-1:-1 / analyse=0x3:0x113 / me=umh / subme=7 / psy=1 / psy_rd=1.00:0.00 / mixed_ref=1 / me_range=32 / chroma_me=1 / trellis=2 / 8x8dct=1 / cqm=0 / deadzone=21,11 / fast_pskip=0 / chroma_qp_offset=-2 / threads=3 / lookahead_threads=1 / sliced_threads=0 / nr=0 / decimate=1 / interlaced=0 / bluray_compat=0 / constrained_intra=0 / bframes=10 / b_pyramid=2 / b_adapt=2 / b_bias=0 / direct=1 / weightb=1 / open_gop=0 / weightp=2 / keyint=250 / keyint_min=25 / scenecut=40 / intra_refresh=0 / rc_lookahead=60 / rc=crf / mbtree=1 / crf=18.5 / qcomp=0.60 / qpmin=0 / qpmax=69 / qpstep=4 / vbv_maxrate=62500 / vbv_bufsize=78125 / crf_max=0.0 / nal_hrd=none / filler=0 / ip_ratio=1.40 / aq=1:1.00Encoded date : UTC 2017-02-12 04:22:50Tagged date : UTC 2017-02-12 06:42:23

Audio #1ID : 2Format : AACFormat/Info : Advanced Audio CodecFormat profile : LCCodec ID : 40Duration : 1 h 38 minBit rate mode : VariableBit rate : 128 kb/sMaximum bit rate : 135 kb/sChannel(s) : 2 channelsChannel positions : Front: L RSampling rate : 48.0 kHzFrame rate : 46.875 FPS (1024 spf)Compression mode : LossyStream size : 90.6 MiB (5%)Title : Dub [license]Language : RussianEncoded date : UTC 2017-02-12 04:29:45Tagged date : UTC 2017-02-12 06:42:23

Audio #2ID : 3Format : AACFormat/Info : Advanced Audio CodecFormat profile : LCCodec ID : 40Duration : 1 h 38 minBit rate mode : VariableBit rate : 128 kb/sMaximum bit rate : 134 kb/sChannel(s) : 2 channelsChannel positions : Front: L RSampling rate : 48.0 kHzFrame rate : 46.875 FPS (1024 spf)Compression mode : LossyStream size : 90.6 MiB (5%)Title : OriginalLanguage : EnglishEncoded date : UTC 2017-02-12 04:40:29Tagged date : UTC 2017-02-12 06:42:23

Text #1ID : 4Format : Timed TextCodec ID : tx3gDuration : 1 h 38 minBit rate mode : VariableBit rate : 1 b/sStream size : 492 Bytes (0%)Title : ForcedLanguage : RussianForced : NoEncoded date : UTC 2017-02-12 06:42:23Tagged date : UTC 2017-02-12 06:42:23

Text #2ID : 5Format : Timed TextCodec ID : tx3gDuration : 1 h 38 minBit rate mode : VariableBit rate : 60 b/sStream size : 43.8 KiB (0%)Title : FullLanguage : RussianForced : NoEncoded date : UTC 2017-02-12 06:42:23Tagged date : UTC 2017-02-12 06:42:23

Text #3ID : 6Format : Timed TextCodec ID : tx3gDuration : 1 h 38 minBit rate mode : VariableBit rate : 45 b/sStream size : 32.3 KiB (0%)Title : FullLanguage : EnglishForced : NoEncoded date : UTC 2017-02-12 06:42:23Tagged date : UTC 2017-02-12 06:42:23

Menu00:00:00.000 : 00:00:00.00000:05:30.747 : 00:05:30.74700:09:12.469 : 00:09:12.46900:14:19.525 : 00:14:19.52500:21:37.880 : 00:21:37.88000:25:24.314 : 00:25:24.31400:30:09.850 : 00:30:09.85000:35:53.318 : 00:35:53.31800:39:04.384 : 00:39:04.38400:43:53.464 : 00:43:53.46400:48:49.677 : 00:48:49.67700:55:11.683 : 00:55:11.68300:58:47.607 : 00:58:47.60701:05:27.715 : 01:05:27.71501:10:46.284 : 01:10:46.28401:14:26.420 : 01:14:26.42001:18:25.075 : 01:18:25.07501:21:48.403 : 01:21:48.40301:27:42.841 : 01:27:42.84101:31:03.291 : 01:31:03.291
<a href="tracker.php?rid=39840292" class="postLink"> </a>
<div class="clear" style="height: 8px;"></div>

Трекер:  [ 12-Фев-2017 09:30 ]

  

Скачать .torrent

Размер .torrent файла 19 KB


Размер: 1.89 GB
Хэш (hash) релиза: d221034c508ee648fb4967ec6e1666e1cafff85a

Еще никто не оставлял запись к записи скачать торрент [VIDEO] Уиджи. Проклятие доски дьявола Ouija: Origin of Evil . Будь первым!

!Обратная связь