Ceramics and medieval rural settlements (Arc | Simile And Alliteration | Rorkes Drift

Скачать через торрент [VIDEO] Хроники мстителя Vigilante Diaries бесплатно русская версия torrent активатор

Статистика раздачи
Размер:  2.36 GB   |    Зарегистрирован:  1 год 5 месяцев   |    .torrent скачан:  18 раз   |   
Раздают:  1  
   
загрузка...
 
Автор Сообщение

Galfimbul

avatar Galfimbul


Хроники мстителя / Vigilante Diaries
«Преступность не остановить. Их тоже»
Дата выхода: 4 февраля 2016
Оригинальное название: Vigilante Diaries
Страна: США
Жанр: боевик
Возраст: 18+

Режиссер: Кристиан Сесма / Christian Sesma

В ролях: Джейсон Мьюз, Куинтон Джексон, Пол Слоун, Кевин Л. Уокер, Майкл Джей Уайт, Майкл Мэдсен, Майк Хаттон, Джеймс Руссо, Арман Ншанян, Сальвадор Герерро мл.

Описание: Когда Мститель устраняет бандита, широко известного в криминальных кругах, начинается снятая в прямом эфире кровавая бойня с участием армянской мафии, мексиканских нарко-картелей, команды бывших спецназовцев и агентов международных спецслужб, проводящих свои тайные операции… Напряженный приключенческий фильм с участием героев 90-х и армянской мафии не даст вам заскучать.

Продолжительность: 01:47:43
Перевод: Дублированный [iTunes]
Оригинальная дорожка: нет

Автор рипа:

Качество видео: BDRip Исходник: Blu-Ray Remux (1080p) Формат: mp4
Видео кодек: MPEG-4 AVC Аудио кодек: AAC
Видео: 1280x534 (2.40:1) at 23.976 fps, AVC at 2 994 kbps avg, 0.183 bit/pixel
Аудио №1 Rus: 48.0 KHz, AAC, 2 ch, 128.0 Kbps
Аудио №2 Eng: 48.0 KHz, AAC, 2 ch, 128.0 Kbps
Субтитры: нет
Навигация по главам: есть
Размер: 2.36 GiB
avs [info]: 1280x534p 1:1 @ 24000/1001 fps (cfr)
x264 [info]: using SAR=1/1
x264 [info]: using cpu capabilities: MMX2 SSE2Fast SSSE3 Cache64
x264 [info]: profile High, level 4.1
x264 [info]: frame I:1477 Avg QP:14.42 size: 90143
x264 [info]: frame P:37077 Avg QP:17.84 size: 27968
x264 [info]: frame B:116415 Avg QP:19.66 size: 10730
x264 [info]: consecutive B-frames: 2.7% 4.9% 10.2% 24.4% 21.5% 29.3% 6.9%
x264 [info]: mb I I16..4: 8.7% 74.9% 16.4%
x264 [info]: mb P I16..4: 2.9% 11.9% 1.7% P16..4: 41.6% 20.9% 11.5% 0.0% 0.0% skip: 9.5%
x264 [info]: mb B I16..4: 0.2% 1.1% 0.2% B16..8: 42.0% 9.5% 2.4% direct: 6.8% skip:37.8% L0:43.7% L1:47.4% BI: 8.9%
x264 [info]: 8x8 transform intra:72.9% inter:66.9%
x264 [info]: coded y,uvDC,uvAC intra: 72.9% 76.6% 51.2% inter: 23.9% 26.8% 5.1%
x264 [info]: i16 v,h,dc,p: 36% 16% 8% 41%
x264 [info]: i8 v,h,dc,ddl,ddr,vr,hd,vl,hu: 14% 9% 8% 9% 13% 12% 13% 11% 12%
x264 [info]: i4 v,h,dc,ddl,ddr,vr,hd,vl,hu: 14% 9% 5% 9% 14% 13% 13% 10% 12%
x264 [info]: i8c dc,h,v,p: 40% 25% 19% 17%
x264 [info]: Weighted P-Frames: Y:6.4% UV:4.3%
x264 [info]: ref P L0: 49.6% 10.3% 16.7% 6.6% 5.0% 3.9% 3.3% 2.1% 2.0% 0.4% 0.0%
x264 [info]: ref B L0: 75.7% 11.4% 5.4% 2.7% 2.0% 1.6% 0.9% 0.3%
x264 [info]: ref B L1: 92.6% 7.4%
x264 [info]: kb/s:2994.30
encoded 154969 frames, 1.64 fps, 2994.30 kb/s
GeneralFormat : MPEG-4Format profile : Base MediaCodec ID : isom (isom)File size : 2.36 GiBDuration : 1 h 47 minOverall bit rate mode : VariableOverall bit rate : 3 130 kb/sMovie name : Хроники мстителя | KinoGadgetPerformer : Кристиан СесмаDirector : Кристиан СесмаActor : Джейсон Мьюз / Куинтон Джексон / Пол Слоун / Кевин Л. Уокер / Майкл Джей Уайт / Майкл Мэдсен / Майк Хаттон / Джеймс Руссо / Арман Ншанян / Сальвадор Герерро мл.Screenplay by : Кристиан Сесма / Пол СлоунProducer : Майк Хаттон / Кристиан Сесма / Ник ВаллелонгаGenre : ActionContentType : Short FilmRecorded date : 2016Encoded date : UTC 2017-02-10 12:23:00Tagged date : UTC 2017-02-11 06:56:57Cover : YesContentRating : mpaa|R|400|LongDescription : Команда крутых спецагентов, опасных, взрывных, ироничных, с богатым чувством юмора, объединяется под началом загадочного Мстителя для борьбы с мировой преступностью.HDVideo : Yes

VideoID : 1Format : AVCFormat/Info : Advanced Video CodecFormat profile : [email protected] settings, CABAC : YesFormat settings, ReFrames : 9 framesCodec ID : avc1Codec ID/Info : Advanced Video CodingDuration : 1 h 47 minBit rate : 2 994 kb/sMaximum bit rate : 27.0 Mb/sWidth : 1 280 pixelsHeight : 534 pixelsDisplay aspect ratio : 2.40:1Frame rate mode : ConstantFrame rate : 23.976 (24000/1001) FPSColor space : YUVChroma subsampling : 4:2:0Bit depth : 8 bitsScan type : ProgressiveBits/(Pixel*Frame) : 0.183Stream size : 2.25 GiB (96%)Writing library : x264 core 148 r2638 7599210Encoding settings : cabac=1 / ref=9 / deblock=1:-1:-1 / analyse=0x3:0x113 / me=umh / subme=9 / psy=1 / psy_rd=1.00:0.00 / mixed_ref=1 / me_range=32 / chroma_me=1 / trellis=2 / 8x8dct=1 / cqm=0 / deadzone=21,11 / fast_pskip=0 / chroma_qp_offset=-2 / threads=3 / lookahead_threads=1 / sliced_threads=0 / nr=0 / decimate=1 / interlaced=0 / bluray_compat=0 / constrained_intra=0 / bframes=6 / b_pyramid=2 / b_adapt=2 / b_bias=0 / direct=1 / weightb=1 / open_gop=0 / weightp=2 / keyint=250 / keyint_min=25 / scenecut=40 / intra_refresh=0 / rc_lookahead=60 / rc=crf / mbtree=1 / crf=18.0 / qcomp=0.60 / qpmin=0 / qpmax=69 / qpstep=4 / vbv_maxrate=62500 / vbv_bufsize=78125 / crf_max=0.0 / nal_hrd=none / filler=0 / ip_ratio=1.40 / aq=1:1.00Encoded date : UTC 2017-02-10 10:08:54Tagged date : UTC 2017-02-10 12:24:06

AudioID : 2Format : AACFormat/Info : Advanced Audio CodecFormat profile : LCCodec ID : 40Duration : 1 h 47 minBit rate mode : VariableBit rate : 128 kb/sMaximum bit rate : 135 kb/sChannel(s) : 2 channelsChannel positions : Front: L RSampling rate : 48.0 kHzFrame rate : 46.875 FPS (1024 spf)Compression mode : LossyStream size : 98.6 MiB (4%)Title : Dub [iTunes]Language : RussianEncoded date : UTC 2017-02-10 10:13:45Tagged date : UTC 2017-02-10 12:24:06

Menu00:00:00.000 : Chapter 100:06:45.614 : Chapter 200:13:31.144 : Chapter 300:25:52.259 : Chapter 400:36:45.412 : Chapter 500:47:00.651 : Chapter 600:52:48.374 : Chapter 700:59:03.248 : Chapter 801:05:51.281 : Chapter 901:23:02.144 : Chapter 1001:37:22.336 : Chapter 1101:41:55.276 : Chapter 12
<a href="tracker.php?rid=39840292" class="postLink"> </a>
<div class="clear" style="height: 8px;"></div>

Трекер:  [ 11-Фев-2017 10:30 ]

  

Скачать .torrent

Размер .torrent файла 12 KB


Размер: 2.36 GB
Хэш (hash) релиза: f0c40b984f16e45f81e7188e30eb71db73bcb884

Еще никто не оставлял запись к записи скачать торрент [VIDEO] Хроники мстителя Vigilante Diaries . Будь первым!

!Обратная связь