Библиотеки сэмплов | Последняя | Adam Riches

Скачать через торрент [VIDEO] Избави нас от лукавого Deliver Us from Evil бесплатно русская версия torrent активатор

Статистика раздачи
Размер:  1.83 GB   |    Зарегистрирован:  1 год 5 месяцев   |    .torrent скачан:  34 раза   |   
Раздают:  1  
   
загрузка...
 
Автор Сообщение

Galfimbul

avatar Galfimbul


Избави нас от лукавого / Deliver Us from Evil
«You haven't seen true evil»
Премьера: 2014
Оригинальное название: Deliver Us from Evil
Страна: США
Жанр: ужасы, триллер, детектив
Возраст: 18+

Режиссер: Скотт Дерриксон / Scott Derrickson

В ролях: Эрик Бана, Эдгар Рамирес, Оливия Манн, Крис Кой, Дориан Миссик, Шон Харрис, Джоэл МакХэйл, Майк Хьюстон, Лулу Уилсон, Оливия Хортон

Описание фильма : Стражи порядка города Нью-Йорка изучают серию взаимосвязанных, страшных и таинственных преступлений. Боясь не справится собственными силами, полицейские обращаются к профессионалу по экзорцизму, для того чтобы помочь городу, очистив его от дьявольской нечисти.

Продолжительность: 01:58:26
Перевод: Дублированный
Оригинальная дорожка: есть

Автор рипа:

Качество видео: BDRip Исходник: <a href="viewtopic.php?t=4882851" class="postLink">Blu-Ray (1080p)</a> Формат: mp4
Видео кодек: MPEG-4 AVC Аудио кодек: AAC
Видео: 1280x534 (2.40:1) at 23.976 fps, AVC at 1 948 kbps avg, 0.119 bit/pixel
Аудио №1 Rus: 48.0 KHz, AAC, 2 ch, 128.0 Kbps
Аудио №2 Eng: 48.0 KHz, AAC, 2 ch, 128.0 Kbps
Субтитры: русские (форсированные, полные), английские (полные)
Навигация по главам: есть
Размер: 1.83 GiB
avs [info]: 1280x534p 1:1 @ 24000/1001 fps (cfr)
x264 [info]: using SAR=1/1
x264 [info]: using cpu capabilities: MMX2 SSE2Fast SSSE3 Cache64
x264 [info]: profile High, level 4.1
x264 [info]: frame I:1425 Avg QP:13.49 size: 68870
x264 [info]: frame P:38140 Avg QP:17.49 size: 19158
x264 [info]: frame B:130811 Avg QP:19.34 size: 6889
x264 [info]: consecutive B-frames: 2.7% 3.5% 6.8% 21.3% 19.6% 34.4% 6.4% 3.9% 1.4%
x264 [info]: mb I I16..4: 13.7% 69.1% 17.2%
x264 [info]: mb P I16..4: 1.6% 8.2% 1.0% P16..4: 44.0% 17.1% 12.3% 0.0% 0.0% skip:15.9%
x264 [info]: mb B I16..4: 0.1% 1.0% 0.1% B16..8: 40.0% 6.8% 1.4% direct: 4.8% skip:45.9% L0:45.6% L1:49.6% BI: 4.8%
x264 [info]: 8x8 transform intra:76.8% inter:68.3%
x264 [info]: coded y,uvDC,uvAC intra: 77.4% 65.2% 37.7% inter: 18.1% 11.5% 1.0%
x264 [info]: i16 v,h,dc,p: 32% 16% 11% 41%
x264 [info]: i8 v,h,dc,ddl,ddr,vr,hd,vl,hu: 12% 7% 8% 10% 14% 13% 13% 11% 12%
x264 [info]: i4 v,h,dc,ddl,ddr,vr,hd,vl,hu: 11% 7% 5% 11% 15% 13% 14% 11% 13%
x264 [info]: i8c dc,h,v,p: 39% 28% 18% 15%
x264 [info]: Weighted P-Frames: Y:10.2% UV:6.7%
x264 [info]: ref P L0: 45.8% 7.3% 15.7% 7.3% 5.4% 4.6% 3.7% 2.3% 2.0% 2.0% 1.7% 1.6% 0.4% 0.1%
x264 [info]: ref B L0: 69.6% 11.7% 6.3% 3.2% 2.5% 2.0% 1.6% 1.0% 1.0% 0.8% 0.3%
x264 [info]: ref B L1: 91.1% 8.9%
x264 [info]: kb/s:1947.55
encoded 170376 frames, 1.58 fps, 1947.55 kb/s
GeneralFormat : MPEG-4Format profile : Base MediaCodec ID : isom (isom)File size : 1.83 GiBDuration : 1 h 58 minOverall bit rate mode : VariableOverall bit rate : 2 215 kb/sMovie name : Избави нас от лукавого | KinoGadgetPerformer : Скотт ДерриксонDirector : Скотт ДерриксонActor : Эрик Бана / Эдгар Рамирес / Оливия Манн / Крис Кой / Дориан Миссик / Шон Харрис / Джоэл МакХэйл / Майк Хьюстон / Лулу Уилсон / Оливия ХортонScreenplay by : Скотт Дерриксон / Пол Харрис Бордман / Ральф СарчиProducer : Джерри Брукхаймер / Пауль В. Бейкер / Пол Харрис БордманGenre : Horror, Mystery, ThrillerContentType : Short FilmRecorded date : 2014Encoded date : UTC 2017-02-10 16:18:34Tagged date : UTC 2017-02-11 06:31:01Cover : YesContentRating : mpaa|R|400|LongDescription : Полиция Нью-Йорка расследует серию тревожных и необъяснимых преступлений. Один из офицеров обращается за помощью к специалисту по экзорцизму, чтобы избавить город от дьявольской напасти.HDVideo : Yes

VideoID : 1Format : AVCFormat/Info : Advanced Video CodecFormat profile : [email protected] settings, CABAC : YesFormat settings, ReFrames : 12 framesCodec ID : avc1Codec ID/Info : Advanced Video CodingDuration : 1 h 58 minBit rate : 1 948 kb/sMaximum bit rate : 18.9 Mb/sWidth : 1 280 pixelsHeight : 534 pixelsDisplay aspect ratio : 2.40:1Frame rate mode : ConstantFrame rate : 23.976 (24000/1001) FPSColor space : YUVChroma subsampling : 4:2:0Bit depth : 8 bitsScan type : ProgressiveBits/(Pixel*Frame) : 0.119Stream size : 1.61 GiB (88%)Writing library : x264 core 148 r2638 7599210Encoding settings : cabac=1 / ref=12 / deblock=1:-1:-1 / analyse=0x3:0x113 / me=umh / subme=9 / psy=1 / psy_rd=1.00:0.00 / mixed_ref=1 / me_range=32 / chroma_me=1 / trellis=2 / 8x8dct=1 / cqm=0 / deadzone=21,11 / fast_pskip=0 / chroma_qp_offset=-2 / threads=3 / lookahead_threads=1 / sliced_threads=0 / nr=0 / decimate=1 / interlaced=0 / bluray_compat=0 / constrained_intra=0 / bframes=8 / b_pyramid=2 / b_adapt=2 / b_bias=0 / direct=1 / weightb=1 / open_gop=0 / weightp=2 / keyint=250 / keyint_min=25 / scenecut=40 / intra_refresh=0 / rc_lookahead=60 / rc=crf / mbtree=1 / crf=18.0 / qcomp=0.60 / qpmin=0 / qpmax=69 / qpstep=4 / vbv_maxrate=62500 / vbv_bufsize=78125 / crf_max=0.0 / nal_hrd=none / filler=0 / ip_ratio=1.40 / aq=1:1.00Encoded date : UTC 2017-02-09 02:19:53Tagged date : UTC 2017-02-10 16:19:21

Audio #1ID : 2Format : AACFormat/Info : Advanced Audio CodecFormat profile : LCCodec ID : 40Duration : 1 h 58 minBit rate mode : VariableBit rate : 128 kb/sMaximum bit rate : 135 kb/sChannel(s) : 2 channelsChannel positions : Front: L RSampling rate : 48.0 kHzFrame rate : 46.875 FPS (1024 spf)Compression mode : LossyStream size : 108 MiB (6%)Title : DubLanguage : RussianEncoded date : UTC 2017-02-09 02:38:29Tagged date : UTC 2017-02-10 16:19:21

Audio #2ID : 3Format : AACFormat/Info : Advanced Audio CodecFormat profile : LCCodec ID : 40Duration : 1 h 58 minBit rate mode : VariableBit rate : 128 kb/sMaximum bit rate : 135 kb/sChannel(s) : 2 channelsChannel positions : Front: L RSampling rate : 48.0 kHzFrame rate : 46.875 FPS (1024 spf)Compression mode : LossyStream size : 108 MiB (6%)Title : OriginalLanguage : EnglishEncoded date : UTC 2017-02-09 02:27:54Tagged date : UTC 2017-02-10 16:19:21

Text #1ID : 4Format : Timed TextCodec ID : tx3gDuration : 1 h 53 minBit rate mode : VariableBit rate : 2 b/sStream size : 1.47 KiB (0%)Title : ForcedLanguage : RussianForced : NoEncoded date : UTC 2017-02-10 16:19:21Tagged date : UTC 2017-02-10 16:19:21

Text #2ID : 5Format : Timed TextCodec ID : tx3gDuration : 1 h 50 minBit rate mode : VariableBit rate : 76 b/sStream size : 62.0 KiB (0%)Title : FullLanguage : RussianForced : NoEncoded date : UTC 2017-02-10 16:19:21Tagged date : UTC 2017-02-10 16:19:21

Text #3ID : 6Format : Timed TextCodec ID : tx3gDuration : 1 h 53 minBit rate mode : VariableBit rate : 49 b/sStream size : 40.7 KiB (0%)Title : FullLanguage : EnglishForced : NoEncoded date : UTC 2017-02-10 16:19:21Tagged date : UTC 2017-02-10 16:19:21

Menu
<div class="clear" style="height: 8px;"></div>

Трекер:  [ 11-Фев-2017 09:00 ]

  

Скачать .torrent

Размер .torrent файла 18 KB


Размер: 1.83 GB
Хэш (hash) релиза: ad2138ebacba5a38cfb134144afcbb6a1eeea9c1

Торренты, похожие на [VIDEO] Избави нас от лукавого Deliver Us from Evil скачать торрент

Форум Название Автор Размер S L Добавлен
Видео (Фильмы/Клипы) ·· [VIDEO] Избави нас от лукавого / Deliver Us from Evil (Скотт Дерриксон / Scott Derrickson) [2014, ужасы, триллер, криминал, HDRip] [MP4, 960x] Dub, Original, Sub Rus Galfimbul 10952871651.02 GB 0 0 1418009598

06:33

8-Дек-14

Еще никто не оставлял запись к записи скачать торрент [VIDEO] Избави нас от лукавого Deliver Us from Evil . Будь первым!

!Обратная связь