Download | Murder One - Der Fall Jessica | Ver catalogo completo

Скачать через торрент музыку Re: Zero kara Hajimeru Isekai Seikatsu бесплатно без регистрации torrent

Статистика раздачи
Размер:  331 MB   |    Зарегистрирован:  1 год 5 месяцев   |    .torrent скачан:  22 раза   |   
Раздают:  1  
   
загрузка...
 
Автор Сообщение

Galfimbul

avatar Galfimbul


Kenichiro Suehiro
Re: Life in a different world from zero - Original Sound Truck
.Носитель: CD
Страна-производитель диска: Япония
Год издания: 2016
Издатель (лейбл): Kadokawa
Номер по каталогу: ZMCZ-10885
Аудиокодек: FLAC (*.flac)
Тип рипа: tracks+.cue
Битрейт аудио: lossless
Продолжительность: 62m 55s
Источник: Airman8
Наличие сканов: нет

Состав:
Composer, Sound Producer: Kenichiro Suehiro
Keyboards & Other Instrumental Programming: Kenichiro Suehiro
Guitars & Bouzouki: Hirotake Homma

Conductor: Koji Haishima
Strings: Masatsugu Shinozaki Group
Horn: Jonathan Hammill, Hana Inoue, Shinichi Kotani, Kenta Yano,
Hiroyuki Minami, Sumiharu Arima, Hisashi Ise, Yo Okamura
Trumpet: Kenichi Tsujimoto, Cheonho Yoon, Kenta Uruma, Moe Matsuyama
Trombone: Hikaru Koga, Shinsuke Torizuka, Kojiro Fujihara, Himeko Tsuji
Bass Trombone: Shunji Yamaguchi, Hiroki Sanda,
Tuba: Shinpei Tsugita, Flute: Hideyo Takakuwa
Flute & Piccolo: Michiyo Morikawa, Oboe: Satoshi Shoji,
Clarinet: Kimio Yamane, Fagotto: Mariko Fukushi
Harp & Highland Harp: Tomoyuki Asakawa, Piano: Hideaki Haginomori
Accordion: Saburo Tanooka, Violin Solo: Masatsugu Shinozaki, Cello Solo: Masami Horisawa

Треклист:
01 Ai to Shikkoku no Rinbukyoku -MainTheme- 3:49
02 Eiyuu no Takt -Kigen- 2:54
03 Zetsubou to Shokuzai no Hymne 3:11
04 Oyaryuu Oukoku Lugnica 2:44
05 Isekai Koushinkyoku 1:59
06 Toki to Sora no Omoide 1:39
07 Fue to Souzou no Sanpomichi 2:06
08 Re:verse 2:33
09 Ketsui no Shin'on 2:05
10 Gensou Lied 3:42
11 Kanashimi no Echt 3:51
12 Kioku no Kusari 3:32
13 Akui no Houkou 2:57
14 Taida 2:05
15 Majo no Yobigoe 2:47
16 Unmei no Kidou 2:24
17 Chinmoku no Requiem 7:04
18 Death Ballet 2:47
19 Gekkou no Enbu 2:12
20 Kessen no Jokyoku 3:01
21 Hoshi no Negai 3:33
Exact Audio Copy V1.1 from 23. June 2015

EAC extraction logfile from 4. December 2016, 23:01

Kenichiro Suehiro / Re: Life in a different world from zero

Used drive : hp CDDVDW TS-L633R Adapter: 1 ID: 0

Read mode : SecureUtilize accurate stream : YesDefeat audio cache : YesMake use of C2 pointers : No

Read offset correction : 6Overread into Lead-In and Lead-Out : NoFill up missing offset samples with silence : YesDelete leading and trailing silent blocks : NoNull samples used in CRC calculations : YesUsed interface : Native Win32 interface for Win NT & 2000Gap handling : Appended to previous track

Used output format : User Defined EncoderSelected bitrate : 1024 kBit/sQuality : HighAdd ID3 tag : NoCommand line compressor : C:\Program Files (x86)\FLAC\flac.exeAdditional command line options : -8 -V -T "ARTIST=%artist%" -T "TITLE=%title%" -T "ALBUM=%albumtitle%" -T "DATE=%year%" -T "TRACKNUMBER=%tracknr%" -T "GENRE=%genre%" -T "PERFORMER=%albuminterpret%" -T "COMPOSER=%composer%" %haslyrics%--tag-from-file=LYRICS="%lyricsfile%"%haslyrics% -T "ALBUMARTIST=%albumartist%" -T "DISCNUMBER=%cdnumber%" -T "TOTALDISCS=%totalcds%" -T "TOTALTRACKS=%numtracks%" -T "COMMENT=%comment%" %source% -o %dest%

TOC of the extracted CD

Track | Start | Length | Start sector | End sector --------------------------------------------------------- 1 | 0:00.00 | 3:49.13 | 0 | 17187 2 | 3:49.13 | 2:53.45 | 17188 | 30207 3 | 6:42.58 | 3:11.17 | 30208 | 44549 4 | 9:54.00 | 2:43.39 | 44550 | 56813 5 | 12:37.39 | 1:59.28 | 56814 | 65766 6 | 14:36.67 | 1:39.29 | 65767 | 73220 7 | 16:16.21 | 2:06.30 | 73221 | 82700 8 | 18:22.51 | 2:32.55 | 82701 | 94155 9 | 20:55.31 | 2:05.35 | 94156 | 103565 10 | 23:00.66 | 3:41.56 | 103566 | 120196 11 | 26:42.47 | 3:51.08 | 120197 | 137529 12 | 30:33.55 | 3:31.67 | 137530 | 153421 13 | 34:05.47 | 2:56.60 | 153422 | 166681 14 | 37:02.32 | 2:05.02 | 166682 | 176058 15 | 39:07.34 | 2:46.40 | 176059 | 188548 16 | 41:53.74 | 2:23.63 | 188549 | 199336 17 | 44:17.62 | 7:03.48 | 199337 | 231109 18 | 51:21.35 | 2:47.12 | 231110 | 243646 19 | 54:08.47 | 2:11.73 | 243647 | 253544 20 | 56:20.45 | 3:01.19 | 253545 | 267138 21 | 59:21.64 | 3:32.67 | 267139 | 283105

Track 1

Filename D:\SendTo\EAC\01 - Ai to Shikkoku no Rinbukyoku -MainTheme-.wav

Pre-gap length 0:00:02.00

Peak level 98.0 % Extraction speed 2.4 X Track quality 100.0 % Test CRC 521868CF Copy CRC 521868CF Track not present in AccurateRip database Copy OK

Track 2

Filename D:\SendTo\EAC\02 - Eiyuu no Takt -Kigen-.wav

Pre-gap length 0:00:01.14

Peak level 98.0 % Extraction speed 1.9 X Track quality 99.9 % Test CRC 13C32E33 Copy CRC 13C32E33 Track not present in AccurateRip database Copy OK

Track 3

Filename D:\SendTo\EAC\03 - Zetsubou to Shokuzai no Hymne.wav

Pre-gap length 0:00:01.16

Peak level 97.9 % Extraction speed 2.1 X Track quality 99.9 % Test CRC 2E4DAAFB Copy CRC 2E4DAAFB Track not present in AccurateRip database Copy OK

Track 4

Filename D:\SendTo\EAC\04 - Oyaryuu Oukoku Lugnica.wav

Pre-gap length 0:00:01.65

Peak level 97.8 % Extraction speed 2.7 X Track quality 100.0 % Test CRC D5161066 Copy CRC D5161066 Track not present in AccurateRip database Copy OK

Track 5

Filename D:\SendTo\EAC\05 - Isekai Koushinkyoku.wav

Pre-gap length 0:00:01.65

Peak level 97.8 % Extraction speed 2.7 X Track quality 100.0 % Test CRC 92AAA166 Copy CRC 92AAA166 Track not present in AccurateRip database Copy OK

Track 6

Filename D:\SendTo\EAC\06 - Toki to Sora no Omoide.wav

Pre-gap length 0:00:01.65

Peak level 97.8 % Extraction speed 2.6 X Track quality 100.0 % Test CRC B6E99637 Copy CRC B6E99637 Track not present in AccurateRip database Copy OK

Track 7

Filename D:\SendTo\EAC\07 - Fue to Souzou no Sanpomichi.wav

Pre-gap length 0:00:01.65

Peak level 97.8 % Extraction speed 2.8 X Track quality 100.0 % Test CRC EE4180DA Copy CRC EE4180DA Track not present in AccurateRip database Copy OK

Track 8

Filename D:\SendTo\EAC\08 - Re-verse.wav

Pre-gap length 0:00:01.16

Peak level 98.1 % Extraction speed 2.3 X Track quality 99.9 % Test CRC F1BE018C Copy CRC F1BE018C Track not present in AccurateRip database Copy OK

Track 9

Filename D:\SendTo\EAC\09 - Ketsui no Shin'on.wav

Pre-gap length 0:00:01.14

Peak level 97.8 % Extraction speed 2.1 X Track quality 99.9 % Test CRC 9D3FA20A Copy CRC 9D3FA20A Track not present in AccurateRip database Copy OK

Track 10

Filename D:\SendTo\EAC\10 - Gensou Lied.wav

Pre-gap length 0:00:01.65

Peak level 83.5 % Extraction speed 2.8 X Track quality 99.9 % Test CRC 5F826521 Copy CRC 5F826521 Track not present in AccurateRip database Copy OK

Track 11

Filename D:\SendTo\EAC\11 - Kanashimi no Echt.wav

Pre-gap length 0:00:01.65

Peak level 97.8 % Extraction speed 3.6 X Track quality 100.0 % Test CRC A27306A9 Copy CRC A27306A9 Track not present in AccurateRip database Copy OK

Track 12

Filename D:\SendTo\EAC\12 - Kioku no Kusari.wav

Pre-gap length 0:00:01.65

Peak level 97.8 % Extraction speed 3.7 X Track quality 100.0 % Test CRC EB4854EA Copy CRC EB4854EA Track not present in AccurateRip database Copy OK

Track 13

Filename D:\SendTo\EAC\13 - Akui no Houkou.wav

Pre-gap length 0:00:01.14

Peak level 97.9 % Extraction speed 3.8 X Track quality 100.0 % Test CRC 910AF3EF Copy CRC 910AF3EF Track not present in AccurateRip database Copy OK

Track 14

Filename D:\SendTo\EAC\14 - Taida.wav

Pre-gap length 0:00:01.14

Peak level 97.7 % Extraction speed 3.5 X Track quality 100.0 % Test CRC EF485A7B Copy CRC EF485A7B Track not present in AccurateRip database Copy OK

Track 15

Filename D:\SendTo\EAC\15 - Majo no Yobigoe.wav

Pre-gap length 0:00:01.14

Peak level 98.0 % Extraction speed 3.8 X Track quality 100.0 % Test CRC 4A136E26 Copy CRC 4A136E26 Track not present in AccurateRip database Copy OK

Track 16

Filename D:\SendTo\EAC\16 - Unmei no Kidou.wav

Pre-gap length 0:00:01.16

Peak level 98.0 % Extraction speed 3.7 X Track quality 100.0 % Test CRC B7005C20 Copy CRC B7005C20 Track not present in AccurateRip database Copy OK

Track 17

Filename D:\SendTo\EAC\17 - Chinmoku no Requiem.wav

Pre-gap length 0:00:01.16

Peak level 97.8 % Extraction speed 4.0 X Track quality 99.9 % Test CRC 9CE56566 Copy CRC 9CE56566 Track not present in AccurateRip database Copy OK

Track 18

Filename D:\SendTo\EAC\18 - Death Ballet.wav

Pre-gap length 0:00:01.14

Peak level 98.1 % Extraction speed 4.1 X Track quality 100.0 % Test CRC D3A71F6A Copy CRC D3A71F6A Track not present in AccurateRip database Copy OK

Track 19

Filename D:\SendTo\EAC\19 - Gekkou no Enbu.wav

Pre-gap length 0:00:01.16

Peak level 98.0 % Extraction speed 4.0 X Track quality 100.0 % Test CRC 0619BFAD Copy CRC 0619BFAD Track not present in AccurateRip database Copy OK

Track 20

Filename D:\SendTo\EAC\20 - Kessen no Jokyoku.wav

Pre-gap length 0:00:01.65

Peak level 97.9 % Extraction speed 3.3 X Track quality 99.9 % Test CRC 2F471742 Copy CRC 2F471742 Track not present in AccurateRip database Copy OK

Track 21

Filename D:\SendTo\EAC\21 - Hoshi no Negai.wav

Pre-gap length 0:00:01.65

Peak level 97.7 % Extraction speed 4.5 X Track quality 100.0 % Test CRC DA6ECF74 Copy CRC DA6ECF74 Track not present in AccurateRip database Copy OK

None of the tracks are present in the AccurateRip database

No errors occurred

End of status report

---- CUETools DB Plugin V2.1.6

[CTDB TOCID: 8HJvliAlPrFEQwMXrkirlIbi7i8-] foundSubmit result: 8HJvliAlPrFEQwMXrkirlIbi7i8- has been confirmedTrack | CTDB Status 1 | (32/32) Accurately ripped 2 | (32/32) Accurately ripped 3 | (32/32) Accurately ripped 4 | (32/32) Accurately ripped 5 | (32/32) Accurately ripped 6 | (32/32) Accurately ripped 7 | (32/32) Accurately ripped 8 | (32/32) Accurately ripped 9 | (32/32) Accurately ripped 10 | (32/32) Accurately ripped 11 | (32/32) Accurately ripped 12 | (32/32) Accurately ripped 13 | (32/32) Accurately ripped 14 | (32/32) Accurately ripped 15 | (32/32) Accurately ripped 16 | (32/32) Accurately ripped 17 | (32/32) Accurately ripped 18 | (32/32) Accurately ripped 19 | (32/32) Accurately ripped 20 | (32/32) Accurately ripped 21 | (32/32) Accurately ripped

==== Log checksum 42ED6003FBADEA9E41EC785D8BAFBF9B96A32A257EA10110832A133768B1A54A ====
REM GENRE SoundtrackREM DATE 2016REM DISCID 2D0EBE15REM COMMENT "ExactAudioCopy v1.1"CATALOG 4935228162031PERFORMER "Kenichiro Suehiro"TITLE "Re: Life in a different world from zero"FILE "01 - Ai to Shikkoku no Rinbukyoku -MainTheme-.wav" WAVE TRACK 01 AUDIO TITLE "Ai to Shikkoku no Rinbukyoku -MainTheme-" PERFORMER "Kenichiro Suehiro" ISRC JPD731600858 INDEX 01 00:00:00 TRACK 02 AUDIO TITLE "Eiyuu no Takt -Kigen-" PERFORMER "Kenichiro Suehiro" ISRC JPD731600859 INDEX 00 03:48:02FILE "02 - Eiyuu no Takt -Kigen-.wav" WAVE INDEX 01 00:00:00 TRACK 03 AUDIO TITLE "Zetsubou to Shokuzai no Hymne" PERFORMER "Kenichiro Suehiro" ISRC JPD731600860 INDEX 00 02:52:33FILE "03 - Zetsubou to Shokuzai no Hymne.wav" WAVE INDEX 01 00:00:00 TRACK 04 AUDIO TITLE "Oyaryuu Oukoku Lugnica" PERFORMER "Kenichiro Suehiro" ISRC JPD731600861 INDEX 00 03:09:43FILE "04 - Oyaryuu Oukoku Lugnica.wav" WAVE INDEX 01 00:00:00 TRACK 05 AUDIO TITLE "Isekai Koushinkyoku" PERFORMER "Kenichiro Suehiro" ISRC JPD731600862 INDEX 00 02:41:65FILE "05 - Isekai Koushinkyoku.wav" WAVE INDEX 01 00:00:00 TRACK 06 AUDIO TITLE "Toki to Sora no Omoide" PERFORMER "Kenichiro Suehiro" ISRC JPD731600863 INDEX 00 01:57:54FILE "06 - Toki to Sora no Omoide.wav" WAVE INDEX 01 00:00:00 TRACK 07 AUDIO TITLE "Fue to Souzou no Sanpomichi" PERFORMER "Kenichiro Suehiro" ISRC JPD731600864 INDEX 00 01:37:55FILE "07 - Fue to Souzou no Sanpomichi.wav" WAVE INDEX 01 00:00:00 TRACK 08 AUDIO TITLE "Re:verse" PERFORMER "Kenichiro Suehiro" ISRC JPD731600865 INDEX 00 02:05:18FILE "08 - Re-verse.wav" WAVE INDEX 01 00:00:00 TRACK 09 AUDIO TITLE "Ketsui no Shin'on" PERFORMER "Kenichiro Suehiro" ISRC JPD731600866 INDEX 00 02:31:44FILE "09 - Ketsui no Shin'on.wav" WAVE INDEX 01 00:00:00 TRACK 10 AUDIO TITLE "Gensou Lied" PERFORMER "Kenichiro Suehiro" ISRC JPD731600867 INDEX 00 02:03:61FILE "10 - Gensou Lied.wav" WAVE INDEX 01 00:00:00 TRACK 11 AUDIO TITLE "Kanashimi no Echt" PERFORMER "Kenichiro Suehiro" ISRC JPD731600868 INDEX 00 03:40:07FILE "11 - Kanashimi no Echt.wav" WAVE INDEX 01 00:00:00 TRACK 12 AUDIO TITLE "Kioku no Kusari" PERFORMER "Kenichiro Suehiro" ISRC JPD731600869 INDEX 00 03:49:34FILE "12 - Kioku no Kusari.wav" WAVE INDEX 01 00:00:00 TRACK 13 AUDIO TITLE "Akui no Houkou" PERFORMER "Kenichiro Suehiro" ISRC JPD731600870 INDEX 00 03:30:56FILE "13 - Akui no Houkou.wav" WAVE INDEX 01 00:00:00 TRACK 14 AUDIO TITLE "Taida" PERFORMER "Kenichiro Suehiro" ISRC JPD731600871 INDEX 00 02:55:49FILE "14 - Taida.wav" WAVE INDEX 01 00:00:00 TRACK 15 AUDIO TITLE "Majo no Yobigoe" PERFORMER "Kenichiro Suehiro" ISRC JPD731600872 INDEX 00 02:03:66FILE "15 - Majo no Yobigoe.wav" WAVE INDEX 01 00:00:00 TRACK 16 AUDIO TITLE "Unmei no Kidou" PERFORMER "Kenichiro Suehiro" ISRC JPD731600873 INDEX 00 02:45:28FILE "16 - Unmei no Kidou.wav" WAVE INDEX 01 00:00:00 TRACK 17 AUDIO TITLE "Chinmoku no Requiem" PERFORMER "Kenichiro Suehiro" ISRC JPD731600874 INDEX 00 02:22:51FILE "17 - Chinmoku no Requiem.wav" WAVE INDEX 01 00:00:00 TRACK 18 AUDIO TITLE "Death Ballet" PERFORMER "Kenichiro Suehiro" ISRC JPD731600875 INDEX 00 07:02:37FILE "18 - Death Ballet.wav" WAVE INDEX 01 00:00:00 TRACK 19 AUDIO TITLE "Gekkou no Enbu" PERFORMER "Kenichiro Suehiro" ISRC JPD731600876 INDEX 00 02:46:00FILE "19 - Gekkou no Enbu.wav" WAVE INDEX 01 00:00:00 TRACK 20 AUDIO TITLE "Kessen no Jokyoku" PERFORMER "Kenichiro Suehiro" ISRC JPD731600877 INDEX 00 02:10:24FILE "20 - Kessen no Jokyoku.wav" WAVE INDEX 01 00:00:00 TRACK 21 AUDIO TITLE "Hoshi no Negai" PERFORMER "Kenichiro Suehiro" ISRC JPD731600878 INDEX 00 02:59:45FILE "21 - Hoshi no Negai.wav" WAVE INDEX 01 00:00:00
<div class="clear" style="height: 8px;"></div>

Трекер:  [ 11-Фев-2017 03:00 ]

  

Скачать .torrent

Размер .torrent файла 15 KB


Размер: 331 MB
Хэш (hash) релиза: 37f94336b16afab7f1063450560422d13a5f0330

Торренты, похожие на Re: Zero kara Hajimeru Isekai Seikatsu скачать торрент

Форум Название Автор Размер S L Добавлен
Саундтреки к аниме (lossless) ·· (OST) Re: Жизнь в альтернативном мире с нуля / Re: Zero kara Hajimeru Isekai Seikatsu / Re: Zero - Starting Life in Another World - 2016, FLAC (tracks), lossless Galfimbul 16433378621.53 GB 0 0 1496949517

22:18

8-Июн-17

Саундтреки к аниме (mp3) ·· (OST) Re: Жизнь в альтернативном мире с нуля / Re: Zero kara Hajimeru Isekai Seikatsu / Re: Zero - Starting Life in Another World - 2016, MP3, 320 kbps Galfimbul 510144161487 MB 0 0 1477682278

22:17

28-Окт-16

Саундтреки к аниме (lossless) ·· (OST) Re: Жизнь в альтернативном мире с нуля / Re: Zero kara Hajimeru Isekai Seikatsu / Re: Zero - Starting Life in Another World - 2016, FLAC (tracks), lossless Galfimbul 13322888111.24 GB 0 0 1477682264

22:17

28-Окт-16

Саундтреки к аниме (mp3) ·· (OST) Re: Жизнь в альтернативном мире с нуля / Re: Zero kara Hajimeru Isekai Seikatsu / Re: Zero - Starting Life in Another World - 2016, MP3, 320 kbps Galfimbul 390326951372 MB 0 0 1476638657

20:24

16-Окт-16

Саундтреки к аниме (lossless) ·· (OST) Re: Жизнь в альтернативном мире с нуля / Re: Zero kara Hajimeru Isekai Seikatsu / Re: Zero - Starting Life in Another World - 2016, FLAC (tracks), lossless Galfimbul 996476707950 MB 0 0 1476638634

20:23

16-Окт-16

Еще никто не оставлял запись к записи скачать торрент Re: Zero kara Hajimeru Isekai Seikatsu . Будь первым!

!Обратная связь