Battlestar Galactica | Yvette Nicole Brown | Gutes altes Hemd Return of the Shirt

Скачать через торрент музыку Уличный боец 2 Победа Street Fighter II V бесплатно без регистрации torrent

Статистика раздачи
Размер:  256 MB   |    Зарегистрирован:  1 год 5 месяцев   |    .torrent скачан:  17 раз   |   
Раздают:  1  
   
загрузка...
 
Автор Сообщение

Galfimbul

avatar Galfimbul


Уличный боец 2 Победа / Street Fighter II V

Название альбома: Street Fighter II V Original Soundtrack
Жанр: OST
Композитор: Masahiro Kawasaki
Год выпуска: 1995
Страна: Япония
Издатель (лейбл): Toshiba EMI
Номер по каталогу: TOCT-9195
Аудио кодек: FLAC (*.flac)
Тип рипа: tracks+.cue
Битрейт аудио: lossless
Продолжительность: 00:48:02
Источник: скачано с PassTheHeadphones.me
Наличие сканов в содержимом раздачи: да
Треклист:
01. Theme of Ryu & Ken (1:51)
02. Kindness of the Old Logger (2:41)
03. Overflowing Curiosity (1:20)
04. Even Ryu Sometimes... (0:57)
05. Flowing Warmth (1:15)
06. Reminiscing the Days of Childhood (1:21)
07. Scuffle in the Bar (1:19)
08. Quick-Tempered - Violent Fight (1:28)
09. Self-indulgent Stroll (1:39)
10. Journey (1:29)
11. Ken's Sweet Scent (1:22)
12. One Who Gets Carried Away Easily (0:55)
13. Fierce Fighting that Races Through the Sky (1:47)
14. A Maiden's Prayer (1:27)
15. The Distant Land of India is Faraway (1:27)
16. Culture Shock (1:20)
17. Holy Dhalsim (1:17)
18. The Search for Truth (1:27)
19. The Legend of Bodhidharma (1:59)
20. The Creation of Hadouken (1:34)
21. Parting With Holy Dhalsim (2:21)
22. Bond of Teacher and Student (1:29)
23. Exalted Streets of Spain (1:27)
24. The Splendid Sword Movements of the Matador (1:32)
25. Lunatic Balrog (1:18)
26. Ken's Critical Moment (1:22)
27. A Beauty Charmed by Blood (1:27)
28. Mystery and Tension (1:24)
29. Heroic Struggle to the Death (1:16)
30. Chief Vega (1:49)
31. Fear and Courage (1:22)
32. Hadou VS Psycho Power (1:21)
Exact Audio Copy V1.0 beta 3 from 29. August 2011

EAC extraction logfile from 22. October 2013, 23:22

Masahiro Kawasaki / Street Fighter II V Original Soundtrack [TOCT-9195]

Used drive : hp DVD A DH16ACSHR Adapter: 0 ID: 0

Read mode : SecureUtilize accurate stream : YesDefeat audio cache : YesMake use of C2 pointers : No

Read offset correction : 6Overread into Lead-In and Lead-Out : NoFill up missing offset samples with silence : YesDelete leading and trailing silent blocks : NoNull samples used in CRC calculations : YesUsed interface : Native Win32 interface for Win NT & 2000Gap handling : Appended to previous track

Used output format : Internal WAV RoutinesSample format : 44.100 Hz; 16 Bit; Stereo

TOC of the extracted CD

Track | Start | Length | Start sector | End sector --------------------------------------------------------- 1 | 0:00.00 | 1:50.42 | 0 | 8291 2 | 1:50.42 | 2:44.08 | 8292 | 20599 3 | 4:34.50 | 1:21.32 | 20600 | 26706 4 | 5:56.07 | 0:57.13 | 26707 | 30994 5 | 6:53.20 | 1:17.00 | 30995 | 36769 6 | 8:10.20 | 1:22.35 | 36770 | 42954 7 | 9:32.55 | 1:20.25 | 42955 | 48979 8 | 10:53.05 | 1:27.52 | 48980 | 55556 9 | 12:20.57 | 1:40.40 | 55557 | 63096 10 | 14:01.22 | 1:29.25 | 63097 | 69796 11 | 15:30.47 | 1:23.40 | 69797 | 76061 12 | 16:54.12 | 0:54.40 | 76062 | 80151 13 | 17:48.52 | 1:48.30 | 80152 | 88281 14 | 19:37.07 | 1:28.18 | 88282 | 94899 15 | 21:05.25 | 1:28.35 | 94900 | 101534 16 | 22:33.60 | 1:21.02 | 101535 | 107611 17 | 23:54.62 | 1:18.70 | 107612 | 113531 18 | 25:13.57 | 1:28.45 | 113532 | 120176 19 | 26:42.27 | 2:00.40 | 120177 | 129216 20 | 28:42.67 | 1:34.28 | 129217 | 136294 21 | 30:17.20 | 2:22.25 | 136295 | 146969 22 | 32:39.45 | 1:29.60 | 146970 | 153704 23 | 34:09.30 | 1:28.02 | 153705 | 160306 24 | 35:37.32 | 1:32.13 | 160307 | 167219 25 | 37:09.45 | 1:19.40 | 167220 | 173184 26 | 38:29.10 | 1:23.12 | 173185 | 179421 27 | 39:52.22 | 1:28.63 | 179422 | 186084 28 | 41:21.10 | 1:25.65 | 186085 | 192524 29 | 42:47.00 | 1:16.45 | 192525 | 198269 30 | 44:03.45 | 1:50.00 | 198270 | 206519 31 | 45:53.45 | 1:22.50 | 206520 | 212719 32 | 47:16.20 | 1:21.32 | 212720 | 218826

Track 1

Filename C:\EAC\01 Theme of Ryu & Ken.wav

Pre-gap length 0:00:02.00

Peak level 100.0 % Extraction speed 0.9 X Track quality 99.9 % Test CRC 4AB468AE Copy CRC 4AB468AE Accurately ripped (confidence 1) [610D41F4] (AR v2) Copy OK

Track 2

Filename C:\EAC\02 Kindness of the Old Logger.wav

Pre-gap length 0:00:02.80

Peak level 49.2 % Extraction speed 1.8 X Track quality 100.0 % Test CRC A892D7A0 Copy CRC A892D7A0 Accurately ripped (confidence 1) [A4D1F63F] (AR v2) Copy OK

Track 3

Filename C:\EAC\03 Overflowing Curiosity.wav

Pre-gap length 0:00:01.66

Peak level 74.9 % Extraction speed 1.6 X Track quality 100.0 % Test CRC E2F9C599 Copy CRC E2F9C599 Accurately ripped (confidence 1) [8C0947FC] (AR v2) Copy OK

Track 4

Filename C:\EAC\04 Even Ryu Sometimes....wav

Pre-gap length 0:00:00.62

Peak level 70.0 % Extraction speed 1.4 X Track quality 100.0 % Test CRC C352EDCA Copy CRC C352EDCA Accurately ripped (confidence 1) [37C61D1D] (AR v2) Copy OK

Track 5

Filename C:\EAC\05 Flowing Warmth.wav

Pre-gap length 0:00:01.66

Peak level 65.4 % Extraction speed 0.9 X Track quality 99.8 % Test CRC 86CE81DB Copy CRC 86CE81DB Accurately ripped (confidence 1) [B524AE77] (AR v2) Copy OK

Track 6

Filename C:\EAC\06 Reminiscing the Days of Childhood.wav

Pre-gap length 0:00:01.33

Peak level 83.2 % Extraction speed 1.7 X Track quality 100.0 % Test CRC 07BC5774 Copy CRC 07BC5774 Accurately ripped (confidence 1) [A4CC7848] (AR v2) Copy OK

Track 7

Filename C:\EAC\07 Scuffle in the Bar.wav

Pre-gap length 0:00:01.66

Peak level 99.6 % Extraction speed 1.0 X Track quality 99.8 % Test CRC A6250914 Copy CRC A6250914 Accurately ripped (confidence 1) [BB5200E6] (AR v2) Copy OK

Track 8

Filename C:\EAC\08 Quick Tempered - Violent Fight.wav

Peak level 93.0 % Extraction speed 1.9 X Track quality 100.0 % Test CRC 0371A13D Copy CRC 0371A13D Accurately ripped (confidence 1) [F5BA7BCD] (AR v2) Copy OK

Track 9

Filename C:\EAC\09 Self - indulgent Stroll.wav

Pre-gap length 0:00:01.66

Peak level 58.2 % Extraction speed 2.0 X Track quality 100.0 % Test CRC 6D446437 Copy CRC 6D446437 Accurately ripped (confidence 1) [459B3573] (AR v2) Copy OK

Track 10

Filename C:\EAC\10 Journey.wav

Pre-gap length 0:00:00.33

Peak level 100.0 % Extraction speed 2.0 X Track quality 100.0 % Test CRC DA0335E2 Copy CRC DA0335E2 Accurately ripped (confidence 1) [B3DD6B9A] (AR v2) Copy OK

Track 11

Filename C:\EAC\11 Ken's Sweet Scent.wav

Pre-gap length 0:00:01.16

Peak level 59.7 % Extraction speed 2.0 X Track quality 100.0 % Test CRC 804A4872 Copy CRC 804A4872 Accurately ripped (confidence 1) [A14D1125] (AR v2) Copy OK

Track 12

Filename C:\EAC\12 One Who Gets Carried Away Easily.wav

Peak level 67.7 % Extraction speed 1.7 X Track quality 100.0 % Test CRC E64F0789 Copy CRC E64F0789 Accurately ripped (confidence 1) [6F069070] (AR v2) Copy OK

Track 13

Filename C:\EAC\13 Fierce Fighting that Races Through the Sky.wav

Pre-gap length 0:00:01.66

Peak level 98.9 % Extraction speed 2.2 X Track quality 100.0 % Test CRC CFA00FEB Copy CRC CFA00FEB Accurately ripped (confidence 1) [58CAFF84] (AR v2) Copy OK

Track 14

Filename C:\EAC\14 A Maiden's Prayer.wav

Pre-gap length 0:00:01.66

Peak level 53.2 % Extraction speed 2.2 X Track quality 100.0 % Test CRC 18C2BFAB Copy CRC 18C2BFAB Accurately ripped (confidence 1) [0818FD3B] (AR v2) Copy OK

Track 15

Filename C:\EAC\15 The Distant Land of India is Faraway.wav

Pre-gap length 0:00:01.66

Peak level 70.9 % Extraction speed 2.2 X Track quality 100.0 % Test CRC 3A60D461 Copy CRC 3A60D461 Accurately ripped (confidence 1) [051C090A] (AR v2) Copy OK

Track 16

Filename C:\EAC\16 Culture Shock.wav

Pre-gap length 0:00:00.66

Peak level 43.8 % Extraction speed 2.1 X Track quality 100.0 % Test CRC 6732434B Copy CRC 6732434B Accurately ripped (confidence 1) [6D1FC015] (AR v2) Copy OK

Track 17

Filename C:\EAC\17 Holy Dhalsim.wav

Pre-gap length 0:00:01.66

Peak level 32.1 % Extraction speed 2.2 X Track quality 100.0 % Test CRC F8FF9DDC Copy CRC F8FF9DDC Accurately ripped (confidence 1) [A11F0BC2] (AR v2) Copy OK

Track 18

Filename C:\EAC\18 The Search for Truth.wav

Pre-gap length 0:00:01.33

Peak level 49.0 % Extraction speed 1.3 X Track quality 99.8 % Test CRC 6AD36B72 Copy CRC 6AD36B72 Accurately ripped (confidence 1) [1DC93670] (AR v2) Copy OK

Track 19

Filename C:\EAC\19 The Legend of Bodhidharma.wav

Pre-gap length 0:00:01.66

Peak level 50.4 % Extraction speed 2.5 X Track quality 100.0 % Test CRC BA548444 Copy CRC BA548444 Accurately ripped (confidence 1) [614E1BBE] (AR v2) Copy OK

Track 20

Filename C:\EAC\20 The Creation of Hadouken.wav

Pre-gap length 0:00:00.66

Peak level 89.3 % Extraction speed 2.5 X Track quality 100.0 % Test CRC E5D7B7D8 Copy CRC E5D7B7D8 Accurately ripped (confidence 1) [0D7F8F2B] (AR v2) Copy OK

Track 21

Filename C:\EAC\21 Parting With Holy Dhalsim.wav

Pre-gap length 0:00:01.00

Peak level 54.7 % Extraction speed 2.8 X Track quality 100.0 % Test CRC 848F518E Copy CRC 848F518E Accurately ripped (confidence 1) [63DE6CC2] (AR v2) Copy OK

Track 22

Filename C:\EAC\22 Bond of Teacher and Student.wav

Pre-gap length 0:00:00.66

Peak level 49.4 % Extraction speed 2.5 X Track quality 100.0 % Test CRC E8FC007D Copy CRC E8FC007D Accurately ripped (confidence 1) [02D098A4] (AR v2) Copy OK

Track 23

Filename C:\EAC\23 Exalted Streets of Spain.wav

Pre-gap length 0:00:01.33

Peak level 55.8 % Extraction speed 2.6 X Track quality 100.0 % Test CRC 923B7700 Copy CRC 923B7700 Accurately ripped (confidence 1) [35F85D1E] (AR v2) Copy OK

Track 24

Filename C:\EAC\24 The Splendid Sword Movements of the Matador.wav

Pre-gap length 0:00:00.66

Peak level 63.2 % Extraction speed 2.6 X Track quality 100.0 % Test CRC 3492E179 Copy CRC 3492E179 Accurately ripped (confidence 1) [20F62C31] (AR v2) Copy OK

Track 25

Filename C:\EAC\25 Lunatic Balrog.wav

Pre-gap length 0:00:01.13

Peak level 55.8 % Extraction speed 2.6 X Track quality 100.0 % Test CRC A4D7FD98 Copy CRC A4D7FD98 Accurately ripped (confidence 1) [52566064] (AR v2) Copy OK

Track 26

Filename C:\EAC\26 Ken's Critical Moment.wav

Pre-gap length 0:00:00.66

Peak level 56.8 % Extraction speed 2.6 X Track quality 100.0 % Test CRC CD16E7C5 Copy CRC CD16E7C5 Accurately ripped (confidence 1) [D84C7A66] (AR v2) Copy OK

Track 27

Filename C:\EAC\27 A Beauty Charmed by Blood.wav

Pre-gap length 0:00:01.66

Peak level 58.9 % Extraction speed 2.7 X Track quality 100.0 % Test CRC AD34B5DA Copy CRC AD34B5DA Accurately ripped (confidence 1) [48BF7080] (AR v2) Copy OK

Track 28

Filename C:\EAC\28 Mystery and Tension.wav

Pre-gap length 0:00:01.66

Peak level 64.9 % Extraction speed 2.7 X Track quality 100.0 % Test CRC 2A548FA1 Copy CRC 2A548FA1 Accurately ripped (confidence 1) [4AF68C83] (AR v2) Copy OK

Track 29

Filename C:\EAC\29 Heroic Struggle to the Death.wav

Pre-gap length 0:00:00.50

Peak level 79.0 % Extraction speed 2.7 X Track quality 100.0 % Test CRC 0E1E962A Copy CRC 0E1E962A Accurately ripped (confidence 1) [DDE92F8E] (AR v2) Copy OK

Track 30

Filename C:\EAC\30 Chief Vega.wav

Pre-gap length 0:00:00.66

Peak level 70.9 % Extraction speed 3.0 X Track quality 100.0 % Test CRC B92E859D Copy CRC B92E859D Accurately ripped (confidence 1) [0B968372] (AR v2) Copy OK

Track 31

Filename C:\EAC\31 Fear and Courage.wav

Pre-gap length 0:00:00.66

Peak level 100.0 % Extraction speed 1.5 X Track quality 99.8 % Test CRC 46B40917 Copy CRC 46B40917 Accurately ripped (confidence 1) [25C318CB] (AR v2) Copy OK

Track 32

Filename C:\EAC\32 Hadou VS Psycho Power.wav

Pre-gap length 0:00:00.66

Peak level 100.0 % Extraction speed 2.8 X Track quality 100.0 % Test CRC 310A75BC Copy CRC 310A75BC Accurately ripped (confidence 1) [12FC5DB3] (AR v2) Copy OK

All tracks accurately ripped

No errors occurred

End of status report

---- CUETools DB Plugin V2.1.3

[CTDB TOCID: 7bgMroJPHrvBOwVkVqZu2t3Zvmk-] found, Submit result: already submitted[b5a2fe55] (2/2) Accurately ripped

==== Log checksum 2775CA60CBB127D83FD1DB3DD985659EC5E95C5AF3051855D6C4F2B9D6090EFF ====
REM GENRE AnimeREM DATE 1995REM DISCID B80B6520REM COMMENT "ExactAudioCopy v1.0b3"CATALOG 4988006127371PERFORMER "Masahiro Kawasaki"TITLE "Street Fighter II V Original Soundtrack [TOCT-9195]"FILE "01 Theme of Ryu & Ken.wav" WAVE TRACK 01 AUDIO TITLE "Theme of Ryu & Ken" PERFORMER "Masahiro Kawasaki" ISRC JPTO09527340 INDEX 01 00:00:00FILE "02 Kindness of the Old Logger.wav" WAVE TRACK 02 AUDIO TITLE "Kindness of the Old Logger" PERFORMER "Masahiro Kawasaki" ISRC JPTO09527350 INDEX 00 00:00:00 INDEX 01 00:02:60FILE "03 Overflowing Curiosity.wav" WAVE TRACK 03 AUDIO TITLE "Overflowing Curiosity" PERFORMER "Masahiro Kawasaki" ISRC JPTO09527360 INDEX 00 00:00:00 INDEX 01 00:01:50FILE "04 Even Ryu Sometimes....wav" WAVE TRACK 04 AUDIO TITLE "Even Ryu Sometimes..." PERFORMER "Masahiro Kawasaki" ISRC JPTO09527370 INDEX 00 00:00:00 INDEX 01 00:00:47FILE "05 Flowing Warmth.wav" WAVE TRACK 05 AUDIO TITLE "Flowing Warmth" PERFORMER "Masahiro Kawasaki" ISRC JPTO09527380 INDEX 00 00:00:00 INDEX 01 00:01:50FILE "06 Reminiscing the Days of Childhood.wav" WAVE TRACK 06 AUDIO TITLE "Reminiscing the Days of Childhood" PERFORMER "Masahiro Kawasaki" ISRC JPTO09527390 INDEX 00 00:00:00 INDEX 01 00:01:25FILE "07 Scuffle in the Bar.wav" WAVE TRACK 07 AUDIO TITLE "Scuffle in the Bar" PERFORMER "Masahiro Kawasaki" ISRC JPTO09527400 INDEX 00 00:00:00 INDEX 01 00:01:50FILE "08 Quick Tempered - Violent Fight.wav" WAVE TRACK 08 AUDIO TITLE "Quick-Tempered - Violent Fight" PERFORMER "Masahiro Kawasaki" ISRC JPTO09527410 INDEX 01 00:00:00FILE "09 Self - indulgent Stroll.wav" WAVE TRACK 09 AUDIO TITLE "Self-indulgent Stroll" PERFORMER "Masahiro Kawasaki" ISRC JPTO09527420 INDEX 00 00:00:00 INDEX 01 00:01:50FILE "10 Journey.wav" WAVE TRACK 10 AUDIO TITLE "Journey" PERFORMER "Masahiro Kawasaki" ISRC JPTO09527430 INDEX 00 00:00:00 INDEX 01 00:00:25FILE "11 Ken's Sweet Scent.wav" WAVE TRACK 11 AUDIO TITLE "Ken's Sweet Scent" PERFORMER "Masahiro Kawasaki" ISRC JPTO09527440 INDEX 00 00:00:00 INDEX 01 00:01:12FILE "12 One Who Gets Carried Away Easily.wav" WAVE TRACK 12 AUDIO TITLE "One Who Gets Carried Away Easily" PERFORMER "Masahiro Kawasaki" ISRC JPTO09527450 INDEX 01 00:00:00FILE "13 Fierce Fighting that Races Through the Sky.wav" WAVE TRACK 13 AUDIO TITLE "Fierce Fighting that Races Through the Sky" PERFORMER "Masahiro Kawasaki" ISRC JPTO09527460 INDEX 00 00:00:00 INDEX 01 00:01:50FILE "14 A Maiden's Prayer.wav" WAVE TRACK 14 AUDIO TITLE "A Maiden's Prayer" PERFORMER "Masahiro Kawasaki" ISRC JPTO09527470 INDEX 00 00:00:00 INDEX 01 00:01:50FILE "15 The Distant Land of India is Faraway.wav" WAVE TRACK 15 AUDIO TITLE "The Distant Land of India is Faraway" PERFORMER "Masahiro Kawasaki" ISRC JPTO09527480 INDEX 00 00:00:00 INDEX 01 00:01:50FILE "16 Culture Shock.wav" WAVE TRACK 16 AUDIO TITLE "Culture Shock" PERFORMER "Masahiro Kawasaki" ISRC JPTO09527490 INDEX 00 00:00:00 INDEX 01 00:00:50FILE "17 Holy Dhalsim.wav" WAVE TRACK 17 AUDIO TITLE "Holy Dhalsim" PERFORMER "Masahiro Kawasaki" ISRC JPTO09527500 INDEX 00 00:00:00 INDEX 01 00:01:50FILE "18 The Search for Truth.wav" WAVE TRACK 18 AUDIO TITLE "The Search for Truth" PERFORMER "Masahiro Kawasaki" ISRC JPTO09527510 INDEX 00 00:00:00 INDEX 01 00:01:25FILE "19 The Legend of Bodhidharma.wav" WAVE TRACK 19 AUDIO TITLE "The Legend of Bodhidharma" PERFORMER "Masahiro Kawasaki" ISRC JPTO09527520 INDEX 00 00:00:00 INDEX 01 00:01:50FILE "20 The Creation of Hadouken.wav" WAVE TRACK 20 AUDIO TITLE "The Creation of Hadouken" PERFORMER "Masahiro Kawasaki" ISRC JPTO09527530 INDEX 00 00:00:00 INDEX 01 00:00:50FILE "21 Parting With Holy Dhalsim.wav" WAVE TRACK 21 AUDIO TITLE "Parting With Holy Dhalsim" PERFORMER "Masahiro Kawasaki" ISRC JPTO09527540 INDEX 00 00:00:00 INDEX 01 00:01:00FILE "22 Bond of Teacher and Student.wav" WAVE TRACK 22 AUDIO TITLE "Bond of Teacher and Student" PERFORMER "Masahiro Kawasaki" ISRC JPTO09527550 INDEX 00 00:00:00 INDEX 01 00:00:50FILE "23 Exalted Streets of Spain.wav" WAVE TRACK 23 AUDIO TITLE "Exalted Streets of Spain" PERFORMER "Masahiro Kawasaki" ISRC JPTO09527560 INDEX 00 00:00:00 INDEX 01 00:01:25FILE "24 The Splendid Sword Movements of the Matador.wav" WAVE TRACK 24 AUDIO TITLE "The Splendid Sword Movements of the Matador" PERFORMER "Masahiro Kawasaki" ISRC JPTO09527570 INDEX 00 00:00:00 INDEX 01 00:00:50FILE "25 Lunatic Balrog.wav" WAVE TRACK 25 AUDIO TITLE "Lunatic Balrog" PERFORMER "Masahiro Kawasaki" ISRC JPTO09527580 INDEX 00 00:00:00 INDEX 01 00:01:10FILE "26 Ken's Critical Moment.wav" WAVE TRACK 26 AUDIO TITLE "Ken's Critical Moment" PERFORMER "Masahiro Kawasaki" ISRC JPTO09527590 INDEX 00 00:00:00 INDEX 01 00:00:50FILE "27 A Beauty Charmed by Blood.wav" WAVE TRACK 27 AUDIO TITLE "A Beauty Charmed by Blood" PERFORMER "Masahiro Kawasaki" ISRC JPTO09527600 INDEX 00 00:00:00 INDEX 01 00:01:50FILE "28 Mystery and Tension.wav" WAVE TRACK 28 AUDIO TITLE "Mystery and Tension" PERFORMER "Masahiro Kawasaki" ISRC JPTO09527610 INDEX 00 00:00:00 INDEX 01 00:01:50FILE "29 Heroic Struggle to the Death.wav" WAVE TRACK 29 AUDIO TITLE "Heroic Struggle to the Death" PERFORMER "Masahiro Kawasaki" ISRC JPTO09527620 INDEX 00 00:00:00 INDEX 01 00:00:38FILE "30 Chief Vega.wav" WAVE TRACK 30 AUDIO TITLE "Chief Vega" PERFORMER "Masahiro Kawasaki" ISRC JPTO09527630 INDEX 00 00:00:00 INDEX 01 00:00:50FILE "31 Fear and Courage.wav" WAVE TRACK 31 AUDIO TITLE "Fear and Courage" PERFORMER "Masahiro Kawasaki" ISRC JPTO09527640 INDEX 00 00:00:00 INDEX 01 00:00:50FILE "32 Hadou VS Psycho Power.wav" WAVE TRACK 32 AUDIO TITLE "Hadou VS Psycho Power" PERFORMER "Masahiro Kawasaki" ISRC JPTO09527650 INDEX 00 00:00:00 INDEX 01 00:00:50
-----------------------

DON'T MODIFY THIS FILE

-----------------------

PERFORMER: auCDtect Task Manager, ver. 1.6.0 RC1 build 1.6.0.1Copyright (c) 2008-2010 y-soft. All rights reservedhttp://y-soft.org

ANALYZER: auCDtect: CD records authenticity detector, version 0.8.2Copyright (c) 2004 Oleg Berngardt. All rights reserved.Copyright (c) 2004 Alexander Djourik. All rights reserved.

FILE: 32 Hadou VS Psycho Power.flac Size: 7614415 Hash: 018068E8935C7E93EE61F1DB5E6CF20C Accuracy: -m0 Conclusion: CDDA 100% Signature: B37561065F709764290C4687D7FD5372FB3D08ADFILE: 31 Fear and Courage.flac Size: 7454714 Hash: F9B187714673E6D4769083616856ABD5 Accuracy: -m0 Conclusion: CDDA 86% Signature: 7D17FEB7759626C59206338FB427FCE34074F44FFILE: 30 Chief Vega.flac Size: 9679626 Hash: 57B3CD3C9AB498389037431F58EF912D Accuracy: -m0 Conclusion: CDDA 100% Signature: C6F33F5B3E8CD050837E01668E7889D2214CC803FILE: 29 Heroic Struggle to the Death.flac Size: 7540777 Hash: A79CC7796C0C4A7467FD373BDB33571E Accuracy: -m0 Conclusion: CDDA 100% Signature: 6000AB331A901A021BBDB27D1B0A4E0DCCCDCA23FILE: 28 Mystery and Tension.flac Size: 7351117 Hash: 97869F9D0B1B588491B5A16430BC3902 Accuracy: -m0 Conclusion: ??? Signature: 7ABB988043C9D99D1764597B84688471FFE740C8FILE: 27 A Beauty Charmed by Blood.flac Size: 8124632 Hash: A93FEA5E8235F5A1A859A45EA1FB501F Accuracy: -m0 Conclusion: CDDA 100% Signature: 173B67A08AAF084262CA4BB8BD813BF47B0E898EFILE: 26 Ken's Critical Moment.flac Size: 8244154 Hash: 9938BB4A6A028833B00D0B3125251558 Accuracy: -m0 Conclusion: CDDA 100% Signature: F87EA4884E81EC31C16D73FD36326141166FBA64FILE: 25 Lunatic Balrog.flac Size: 7338391 Hash: C19745970D99AF583658473698D666B8 Accuracy: -m0 Conclusion: CDDA 100% Signature: 98B41789F211CFDA0243BAB0F1FB0B7ABE7214C9FILE: 24 The Splendid Sword Movements of the Matador.flac Size: 9548924 Hash: D8E8E7C19F294D3FD2017077C14F7FDD Accuracy: -m0 Conclusion: CDDA 100% Signature: A3129F8436CDABDE93C0587A7778CA7CAFEC67C1FILE: 23 Exalted Streets of Spain.flac Size: 8169815 Hash: 32DECF8134A896EEB20143371F29A1FB Accuracy: -m0 Conclusion: CDDA 100% Signature: ADA77E88E04FCBF2C4BC5F31E19DA804F7122DE8FILE: 22 Bond of Teacher and Student.flac Size: 6181388 Hash: C9743A3E74F2269AA4690B93A3F03DC2 Accuracy: -m0 Conclusion: CDDA 100% Signature: 27EFED6DEE847613BF8B00C9FDD074B1928D378CFILE: 21 Parting With Holy Dhalsim.flac Size: 11434122 Hash: 7775D6CBC5B64287A2BFA8FFA33EE654 Accuracy: -m0 Conclusion: CDDA 100% Signature: 6BCD2F2F9534F2DA37472EC40EF6FA5381769A24FILE: 20 The Creation of Hadouken.flac Size: 8909847 Hash: 774803C54818064BF9B0EDC20CB2549A Accuracy: -m0 Conclusion: CDDA 100% Signature: E2D4A64AD71E9A520062A456202ED25797ED36B1FILE: 19 The Legend of Bodhidharma.flac Size: 9632552 Hash: 8D5315717D6B94187568070AFE8C8B2C Accuracy: -m0 Conclusion: CDDA 100% Signature: 56A4C029240E60EE4510509CB139ACCDEC03F724FILE: 18 The Search for Truth.flac Size: 7316339 Hash: 800E229FF8AB8FBAC7CE4BE821C40C03 Accuracy: -m0 Conclusion: CDDA 100% Signature: DFEA87E21B85B78E8C64DBD9A3552ED8289F201FFILE: 17 Holy Dhalsim.flac Size: 7338497 Hash: A49918F16F780FEFAFA3E2582FCDB92A Accuracy: -m0 Conclusion: CDDA 100% Signature: 9E0678B356311F5E67AA270896FDA931F8629675FILE: 16 Culture Shock.flac Size: 6074127 Hash: 5E7795D8BAB50CFC4D22FE78F5E5C5A5 Accuracy: -m0 Conclusion: CDDA 100% Signature: 773A2993FD8F7A83EDB41D449ED6EBD65C9AAC40FILE: 15 The Distant Land of India is Faraway.flac Size: 7975884 Hash: C0CE7350CA780F72A665356B2D98646F Accuracy: -m0 Conclusion: MPEG 100% Signature: 261F8815D0199FF53F28FC350A9962126D9F47F9FILE: 14 A Maiden's Prayer.flac Size: 7603127 Hash: EF1F77A051415564D2C1FF30AA92332B Accuracy: -m0 Conclusion: CDDA 100% Signature: CAA6B46297DAAA0E9A93B2A2095B9F407973FD12FILE: 13 Fierce Fighting that Races Through the Sky.flac Size: 11306588 Hash: 7D9A57FD278963FEFD7F867512884C0B Accuracy: -m0 Conclusion: CDDA 99% Signature: 83293D104011B5862A5CED8B99D5981E98ADF17BFILE: 12 One Who Gets Carried Away Easily.flac Size: 4602123 Hash: AA7C703881F1FE71DEB06A8A8F411B4F Accuracy: -m0 Conclusion: CDDA 99% Signature: DCD030087C4D9130459F8139DDA89FAABF3FE7B5FILE: 11 Ken's Sweet Scent.flac Size: 7609850 Hash: A565EE1E5ADB45855798AEF0BA8A4611 Accuracy: -m0 Conclusion: CDDA 100% Signature: 72AB5DB50B5B471FFF114E28A44F8405FF08270CFILE: 10 Journey.flac Size: 8426700 Hash: E9467F345C1FFD3FB343B0A5A3D4C3B6 Accuracy: -m0 Conclusion: CDDA 100% Signature: B0DA9FACE1266F73F5A053371562EF21D6324EDCFILE: 09 Self - indulgent Stroll.flac Size: 8822598 Hash: 62B4DF9285CB506A0D4C17F33F3F9BF4 Accuracy: -m0 Conclusion: CDDA 100% Signature: 3B7462A8973BC42924DF4F1C783300A2307A67B9FILE: 08 Quick Tempered - Violent Fight.flac Size: 8263745 Hash: 3359EB06FE65F93A84D52640D2E03858 Accuracy: -m0 Conclusion: CDDA 100% Signature: 0226DE9430F762E39C98643B506057FCBAC852C6FILE: 07 Scuffle in the Bar.flac Size: 8446075 Hash: 79EA76E8EF9151E28019D570C9FFF1B9 Accuracy: -m0 Conclusion: CDDA 100% Signature: 984AAFC8AB16D27A7EB725D14B1F42C87C53990AFILE: 06 Reminiscing the Days of Childhood.flac Size: 7513088 Hash: 21A4EC8A08EA1C21FE202FDFEAA3F32B Accuracy: -m0 Conclusion: CDDA 100% Signature: 48D1117712B104206B27EFAFD67E76EF87493DD1FILE: 05 Flowing Warmth.flac Size: 7250790 Hash: 8232B1CBC0BB5A81868D98ADFB6C383D Accuracy: -m0 Conclusion: CDDA 100% Signature: C109768738A52F9C65E6FE30A3D5019963F3AD11FILE: 04 Even Ryu Sometimes....flac Size: 4675236 Hash: D33000D0CD5ACDCA9C863A058A48F1F5 Accuracy: -m0 Conclusion: CDDA 100% Signature: C3332FC89A0963D6FBF7E32503E1CA0EACF25ED0FILE: 03 Overflowing Curiosity.flac Size: 8240039 Hash: C62D8138AD380A597647D05F11BF527C Accuracy: -m0 Conclusion: CDDA 100% Signature: CC032A972E4C5F386F0E9D8A69192D760131AB9FFILE: 02 Kindness of the Old Logger.flac Size: 13303191 Hash: 041DBB4BB40EA8A81E24F14F5E4A13F4 Accuracy: -m0 Conclusion: CDDA 99% Signature: 59BC6DD08BDF3B5EED668EAA355A64B0A51519CAFILE: 01 Theme of Ryu & Ken.flac Size: 10905971 Hash: AF1BA58C3BC74653F39C2D8558B6EB56 Accuracy: -m0 Conclusion: CDDA 99% Signature: 5BECB031426105487E800CAC17CD3A8676910D70
Альбом на VGMdb
<div class="clear" style="height: 8px;"></div>

Трекер:  [ 10-Фев-2017 19:30 ]

  

Скачать .torrent

Размер .torrent файла 13 KB


Размер: 256 MB
Хэш (hash) релиза: f2c52105f9c100b91aad282aeee0bed887f01667

Еще никто не оставлял запись к записи скачать торрент Уличный боец 2 Победа Street Fighter II V . Будь первым!

!Обратная связь