Mr. House Husband | Download YoungHeart - Known (Tauren Wells) mp3 | Die Abenteuer des Brisco County Jr.

Скачать через торрент [VIDEO] Приключения Буратино бесплатно русская версия torrent активатор

Статистика раздачи
Размер:  923 MB   |    Зарегистрирован:  1 год 5 месяцев   |    .torrent скачан:  41 раз   |   
Раздают:  1  
   
загрузка...
 
Автор Сообщение

Galfimbul

avatar Galfimbul


<span class="post-font-serif1">Приключения Буратино (ТВ) / 2 Серии</span>

<span class="post-font-serif1">Год выпуска: 1975
Страна: СССР
Жанр: детский, мюзикл, фэнтези, приключения, семейный
Продолжительность: 01:05:14 (1 серия)
Продолжительность: 01:08:08 (2 серия)
Перевод: не требуется
Cубтитры: нет</span>
<span class="post-font-serif1">Режиссер: Леонид Нечаев</span>
<span class="post-font-serif1">В ролях: Дмитрий Иосифов, Татьяна Проценко, Роман Столкарц, Томас Аугустинас, Гриша Светлорусов, Николай Гринько, Юрий Катин-Ярцев, Рина Зелёная, Владимир Этуш, Ролан Быков, Елена Санаева, Владимир Басов ст., Баадур Цуладзе и другие .</span>
<span class="post-font-serif1">Описание: На дурака не нужен нож: ему немного подпоешь — и делай с ним, что хошь! Деревянный человечек, которого Папа Карло выстругал из полена, получился веселым, дерзким, шумным и доверчивым. Лиса Алиса и Кот Базилио завели его в Страну Дураков, но мудрая Черепаха Тортила помогла Буратино найти Золотой Ключик, потому что он был ужасно обаятельным.</span>
<span class="post-font-serif1">Релиз группы </span>
<span class="post-font-serif1">Качество: DVDRip / рип с DVD9
Формат: MP4
Видео кодек: H.264
Аудио кодек: AAC
Видео: 480x360 AR:4/3 823 kbps 25 fps (1 серия)
Аудио: 2ch 48 kHz 128 kbps (1 серия)
Видео: 480x360 AR:4/3 840 kbps 25 fps (2 серия)
Аудио: 2ch 48 kHz 128 kbps (2 серия)</span>

avs [info]: 480x360p 1:1 @ 25/1 fps (cfr)
x264 [info]: using SAR=1/1
x264 [info]: using cpu capabilities: MMX2 SSE2Fast SSSE3 SSE4.2 AVX FMA3 AVX2 LZCNT BMI2
x264 [info]: profile High, level 4.1

x264 [info]: frame I:786 Avg QP:20.09 size: 23286
x264 [info]: frame P:20357 Avg QP:23.49 size: 9116
x264 [info]: frame B:76722 Avg QP:26.26 size: 2591
x264 [info]: consecutive B-frames: 1.6% 2.1% 7.2% 16.8% 10.1% 59.5% 2.0% 0.5%
x264 [info]: mb I I16..4: 9.0% 69.4% 21.6%
x264 [info]: mb P I16..4: 0.6% 9.6% 1.9% P16..4: 36.1% 34.4% 12.9% 1.8% 0.2% skip: 2.6%
x264 [info]: mb B I16..4: 0.1% 1.3% 0.2% B16..8: 32.6% 20.7% 4.0% direct: 4.9% skip:36.1% L0:40.0% L1:42.8% BI:17.3%
x264 [info]: 8x8 transform intra:79.0% inter:64.6%
x264 [info]: direct mvs spatial:97.7% temporal:2.3%
x264 [info]: coded y,uvDC,uvAC intra: 87.6% 82.3% 46.8% inter: 23.9% 21.0% 5.6%
x264 [info]: i16 v,h,dc,p: 16% 17% 2% 65%
x264 [info]: i8 v,h,dc,ddl,ddr,vr,hd,vl,hu: 15% 6% 3% 9% 14% 15% 12% 13% 12%
x264 [info]: i4 v,h,dc,ddl,ddr,vr,hd,vl,hu: 16% 7% 3% 8% 15% 15% 13% 11% 12%
x264 [info]: i8c dc,h,v,p: 34% 23% 23% 20%
x264 [info]: Weighted P-Frames: Y:35.3% UV:18.9%
x264 [info]: ref P L0: 42.7% 14.4% 14.6% 7.2% 5.4% 4.4% 3.5% 1.9% 1.7% 1.7% 1.7% 0.8% 0.0%
x264 [info]: ref B L0: 82.7% 7.6% 3.4% 1.9% 1.3% 1.1% 0.8% 0.5% 0.4% 0.3%
x264 [info]: ref B L1: 97.2% 2.8%
x264 [info]: kb/s:822.96

encoded 97865 frames, 24.85 fps, 822.96 kb/s
GeneralComplete name : D:\Torrents\Приключения Буратино (2 серии).1975.DVDRip.x264.640x\Приключения Буратино (1 серия).1975.DVDRip.x264.640x.rip by Frost O.S.mp4Format : MPEG-4Format profile : Base MediaCodec ID : isom (isom/avc1)File size : 448 MiBDuration : 1 h 5 minOverall bit rate mode : VariableOverall bit rate : 959 kb/sMovie name : Приключения Буратино (1 серия) 1975 DVDRip x264 640x rip by Frost O SGenre : Children'sContentType : Short FilmEncoded date : UTC 2017-02-09 18:59:06Tagged date : UTC 2017-02-09 18:59:44Writing application : MkvToMp4 version: 0.224 (x64)Cover : YesComment : rip by Frost O.S

VideoID : 1Format : AVCFormat/Info : Advanced Video CodecFormat profile : [email protected] settings, CABAC : YesFormat settings, ReFrames : 11 framesCodec ID : avc1Codec ID/Info : Advanced Video CodingDuration : 1 h 5 minBit rate : 823 kb/sMaximum bit rate : 4 219 kb/sWidth : 480 pixelsHeight : 360 pixelsDisplay aspect ratio : 4:3Frame rate mode : ConstantFrame rate : 25.000 FPSColor space : YUVChroma subsampling : 4:2:0Bit depth : 8 bitsScan type : ProgressiveBits/(Pixel*Frame) : 0.191Stream size : 384 MiB (86%)Writing library : x264 core 148 r2705 3f5ed56Encoding settings : cabac=1 / ref=11 / deblock=1:-2:-2 / analyse=0x3:0x133 / me=umh / subme=11 / psy=1 / psy_rd=0.80:0.00 / mixed_ref=1 / me_range=48 / chroma_me=1 / trellis=2 / 8x8dct=1 / cqm=0 / deadzone=21,11 / fast_pskip=0 / chroma_qp_offset=-2 / threads=6 / lookahead_threads=1 / sliced_threads=0 / nr=0 / decimate=0 / interlaced=0 / bluray_compat=0 / constrained_intra=0 / bframes=7 / b_pyramid=2 / b_adapt=2 / b_bias=0 / direct=3 / weightb=1 / open_gop=0 / weightp=2 / keyint=250 / keyint_min=25 / scenecut=40 / intra_refresh=0 / rc_lookahead=40 / rc=2pass / mbtree=1 / bitrate=823 / ratetol=1.0 / qcomp=0.70 / qpmin=0 / qpmax=69 / qpstep=4 / cplxblur=20.0 / qblur=0.5 / ip_ratio=1.40 / aq=2:0.70Language : EnglishEncoded date : UTC 2017-02-09 18:59:06Tagged date : UTC 2017-02-09 18:59:20Color range : LimitedColor primaries : BT.601 PALTransfer characteristics : BT.470 System B, BT.470 System GMatrix coefficients : BT.601

AudioID : 2Format : AACFormat/Info : Advanced Audio CodecFormat profile : LCCodec ID : 40Duration : 1 h 5 minBit rate mode : VariableBit rate : 128 kb/sMaximum bit rate : 131 kb/sChannel(s) : 2 channelsChannel positions : Front: L RSampling rate : 48.0 kHzFrame rate : 46.875 FPS (1024 spf)Compression mode : LossyStream size : 59.7 MiB (13%)Language : RussianDefault : YesAlternate group : 1Encoded date : UTC 2017-02-09 18:59:14Tagged date : UTC 2017-02-09 18:59:20

avs [info]: 480x360p 1:1 @ 25/1 fps (cfr)
x264 [info]: using SAR=1/1
x264 [info]: using cpu capabilities: MMX2 SSE2Fast SSSE3 SSE4.2 AVX FMA3 AVX2 LZCNT BMI2
x264 [info]: profile High, level 4.1

x264 [info]: frame I:794 Avg QP:19.39 size: 25939
x264 [info]: frame P:21285 Avg QP:22.79 size: 9507
x264 [info]: frame B:80144 Avg QP:25.51 size: 2576
x264 [info]: consecutive B-frames: 1.8% 2.3% 7.0% 14.7% 9.9% 61.8% 1.9% 0.5%
x264 [info]: mb I I16..4: 7.6% 70.9% 21.5%
x264 [info]: mb P I16..4: 0.5% 9.3% 1.7% P16..4: 35.4% 35.2% 13.9% 1.9% 0.2% skip: 1.9%
x264 [info]: mb B I16..4: 0.0% 1.2% 0.2% B16..8: 32.7% 21.7% 4.2% direct: 5.4% skip:34.6% L0:39.9% L1:43.4% BI:16.7%
x264 [info]: 8x8 transform intra:80.0% inter:63.9%
x264 [info]: direct mvs spatial:97.7% temporal:2.3%
x264 [info]: coded y,uvDC,uvAC intra: 88.2% 86.2% 52.8% inter: 24.3% 23.3% 7.0%
x264 [info]: i16 v,h,dc,p: 15% 17% 2% 66%
x264 [info]: i8 v,h,dc,ddl,ddr,vr,hd,vl,hu: 14% 6% 3% 9% 14% 14% 13% 13% 13%
x264 [info]: i4 v,h,dc,ddl,ddr,vr,hd,vl,hu: 14% 7% 3% 9% 14% 15% 13% 12% 13%
x264 [info]: i8c dc,h,v,p: 35% 22% 21% 21%
x264 [info]: Weighted P-Frames: Y:32.7% UV:19.1%
x264 [info]: ref P L0: 42.6% 13.6% 15.6% 7.7% 6.0% 4.9% 4.0% 2.3% 2.4% 1.1% 0.0%
x264 [info]: ref B L0: 82.4% 8.0% 3.6% 2.1% 1.5% 1.3% 0.7% 0.4%
x264 [info]: ref B L1: 97.3% 2.7%
x264 [info]: kb/s:840.12

encoded 102223 frames, 26.57 fps, 840.12 kb/s
GeneralComplete name : D:\Torrents\Приключения Буратино (2 серии).1975.DVDRip.x264.640x\Приключения Буратино (2 серия).1975.DVDRip.x264.640x.rip by Frost O.S.mp4Format : MPEG-4Format profile : Base MediaCodec ID : isom (isom/avc1)File size : 476 MiBDuration : 1 h 8 minOverall bit rate mode : VariableOverall bit rate : 976 kb/sMovie name : Приключения Буратино (2 серия) 1975 DVDRip x264 640x rip by Frost O SGenre : Children'sContentType : Short FilmEncoded date : UTC 2017-02-09 19:01:53Tagged date : UTC 2017-02-09 19:02:36Writing application : MkvToMp4 version: 0.224 (x64)Cover : YesComment : rip by Frost O.S

VideoID : 1Format : AVCFormat/Info : Advanced Video CodecFormat profile : [email protected] settings, CABAC : YesFormat settings, ReFrames : 9 framesCodec ID : avc1Codec ID/Info : Advanced Video CodingDuration : 1 h 8 minBit rate : 840 kb/sMaximum bit rate : 2 955 kb/sWidth : 480 pixelsHeight : 360 pixelsDisplay aspect ratio : 4:3Frame rate mode : ConstantFrame rate : 25.000 FPSColor space : YUVChroma subsampling : 4:2:0Bit depth : 8 bitsScan type : ProgressiveBits/(Pixel*Frame) : 0.194Stream size : 410 MiB (86%)Writing library : x264 core 148 r2705 3f5ed56Encoding settings : cabac=1 / ref=9 / deblock=1:-2:-2 / analyse=0x3:0x133 / me=umh / subme=11 / psy=1 / psy_rd=0.80:0.00 / mixed_ref=1 / me_range=48 / chroma_me=1 / trellis=2 / 8x8dct=1 / cqm=0 / deadzone=21,11 / fast_pskip=0 / chroma_qp_offset=-2 / threads=6 / lookahead_threads=1 / sliced_threads=0 / nr=0 / decimate=0 / interlaced=0 / bluray_compat=0 / constrained_intra=0 / bframes=7 / b_pyramid=2 / b_adapt=2 / b_bias=0 / direct=3 / weightb=1 / open_gop=0 / weightp=2 / keyint=250 / keyint_min=25 / scenecut=40 / intra_refresh=0 / rc_lookahead=40 / rc=2pass / mbtree=1 / bitrate=840 / ratetol=1.0 / qcomp=0.70 / qpmin=0 / qpmax=69 / qpstep=4 / cplxblur=20.0 / qblur=0.5 / ip_ratio=1.40 / aq=2:0.70Language : EnglishEncoded date : UTC 2017-02-09 19:01:53Tagged date : UTC 2017-02-09 19:02:12Color range : LimitedColor primaries : BT.601 PALTransfer characteristics : BT.470 System B, BT.470 System GMatrix coefficients : BT.601

AudioID : 2Format : AACFormat/Info : Advanced Audio CodecFormat profile : LCCodec ID : 40Duration : 1 h 8 minBit rate mode : VariableBit rate : 128 kb/sMaximum bit rate : 132 kb/sChannel(s) : 2 channelsChannel positions : Front: L RSampling rate : 48.0 kHzFrame rate : 46.875 FPS (1024 spf)Compression mode : LossyStream size : 62.4 MiB (13%)Language : RussianDefault : YesAlternate group : 1Encoded date : UTC 2017-02-09 19:02:02Tagged date : UTC 2017-02-09 19:02:12
<div class="clear" style="height: 8px;"></div>

Трекер:  [ 09-Фев-2017 21:00 ]

  

Скачать .torrent

Размер .torrent файла 18 KB


Размер: 923 MB
Хэш (hash) релиза: 0ef6e932813427c30f19ca8f73b2dc2541a9247a

Еще никто не оставлял запись к записи скачать торрент [VIDEO] Приключения Буратино . Будь первым!

!Обратная связь