Recovery Road | Compay Segundo - Nueva anto... | Сборник клипов - Promo Only Hair Bands [01] (2006) DVDRip

Скачать через торрент [VIDEO] Афоня бесплатно русская версия torrent активатор

Статистика раздачи
Размер:  1.2 GB   |    Зарегистрирован:  1 год 6 месяцев   |    .torrent скачан:  45 раз   |   
Раздают:  1  
   
загрузка...
 
Автор Сообщение

Galfimbul

avatar Galfimbul


<span class="post-font-serif1">Афоня</span>

<span class="post-font-serif1">Год выпуска: 1975
Страна: СССР
Жанр: драма, мелодрама, комедия
Продолжительность: 01:31:57
Перевод: не требуется
Cубтитры: нет</span>
<span class="post-font-serif1">Режиссер: Георгий Данелия</span>
<span class="post-font-serif1">В ролях: Леонид Куравлёв, Евгения Симонова, Евгений Леонов, Борислав Брондуков, Валентина Талызина, Владимир Басов, Готлиб Ронинсон, Николай Парфёнов, Нина Русланова, Раиса Куркина и другие .</span>
<span class="post-font-serif1">Описание: Весело и беззаботно жил слесарь-сантехник Афанасий. Не гнушался левыми заработками, любил выпить, поволочиться за девушками. Так проходил день за днем, но однажды… О том, что случилось с Афоней, рассказывает фильм признанного мастера комедии Георгия Данелии.</span>
<span class="post-font-serif1">Релиз группы </span>
<span class="post-font-serif1">Качество: BDRip / рип с Blu-ray 1080p
Формат: MP4
Видео кодек: H.264
Аудио кодек: AAC
Видео: 736x536 AR:1.373 1740 kbps 23.976 fps
Аудио: 2ch 48 kHz 128 kbps</span>
avs [info]: 736x536p 1:1 @ 2997/125 fps (cfr)
x264 [info]: using SAR=1/1
x264 [info]: using cpu capabilities: MMX2 SSE2Fast SSSE3 SSE4.2 AVX FMA3 AVX2 LZCNT BMI2
x264 [info]: profile High, level 4.1

x264 [info]: frame I:757 Avg QP:16.55 size: 57482
x264 [info]: frame P:27455 Avg QP:19.95 size: 20906
x264 [info]: frame B:104068 Avg QP:21.79 size: 5599
x264 [info]: consecutive B-frames: 1.2% 1.9% 7.0% 18.1% 17.7% 45.6% 6.3% 2.1%
x264 [info]: mb I I16..4: 4.6% 77.9% 17.5%
x264 [info]: mb P I16..4: 0.3% 7.8% 0.8% P16..4: 32.8% 39.5% 14.9% 0.0% 0.0% skip: 3.9%
x264 [info]: mb B I16..4: 0.0% 0.5% 0.1% B16..8: 32.9% 17.9% 3.3% direct: 5.2% skip:40.2% L0:40.4% L1:44.1% BI:15.5%
x264 [info]: 8x8 transform intra:85.9% inter:58.5%
x264 [info]: direct mvs spatial:98.0% temporal:2.0%
x264 [info]: coded y,uvDC,uvAC intra: 93.4% 81.8% 52.5% inter: 25.1% 18.5% 5.2%
x264 [info]: i16 v,h,dc,p: 33% 19% 12% 36%
x264 [info]: i8 v,h,dc,ddl,ddr,vr,hd,vl,hu: 13% 7% 9% 10% 13% 13% 12% 12% 12%
x264 [info]: i4 v,h,dc,ddl,ddr,vr,hd,vl,hu: 15% 8% 4% 9% 15% 15% 13% 12% 12%
x264 [info]: i8c dc,h,v,p: 36% 26% 23% 15%
x264 [info]: Weighted P-Frames: Y:15.8% UV:7.4%
x264 [info]: ref P L0: 45.4% 12.5% 17.6% 7.0% 6.0% 4.3% 4.2% 2.5% 0.4% 0.0%
x264 [info]: ref B L0: 82.3% 8.6% 3.9% 2.1% 1.4% 1.1% 0.5%
x264 [info]: ref B L1: 96.9% 3.1%
x264 [info]: kb/s:1740.27

encoded 132280 frames, 14.87 fps, 1740.27 kb/s
GeneralComplete name : D:\Torrents\Афоня.1975.BDRip.x264.960x.rip by Frost O.S.mp4Format : MPEG-4Format profile : Base MediaCodec ID : isom (isom/avc1)File size : 1.20 GiBDuration : 1 h 31 minOverall bit rate mode : VariableOverall bit rate : 1 876 kb/sMovie name : Афоня 1975 BDRip x264 960x rip by Frost O SGenre : ComedyContentType : Short FilmEncoded date : UTC 2017-02-09 14:45:16Tagged date : UTC 2017-02-09 14:47:30Writing application : MkvToMp4 version: 0.224 (x64)Cover : YesComment : rip by Frost O.S

VideoID : 1Format : AVCFormat/Info : Advanced Video CodecFormat profile : [email protected] settings, CABAC : YesFormat settings, ReFrames : 8 framesCodec ID : avc1Codec ID/Info : Advanced Video CodingDuration : 1 h 31 minBit rate : 1 740 kb/sMaximum bit rate : 5 843 kb/sWidth : 736 pixelsHeight : 536 pixelsDisplay aspect ratio : 1.373Frame rate mode : ConstantFrame rate : 23.976 (24000/1001) FPSOriginal frame rate : 23.976 (23976/1000) FPSColor space : YUVChroma subsampling : 4:2:0Bit depth : 8 bitsScan type : ProgressiveBits/(Pixel*Frame) : 0.184Stream size : 1.12 GiB (93%)Writing library : x264 core 148 r2705 3f5ed56Encoding settings : cabac=1 / ref=8 / deblock=1:-2:-2 / analyse=0x3:0x113 / me=umh / subme=11 / psy=1 / psy_rd=0.90:0.00 / mixed_ref=1 / me_range=32 / chroma_me=1 / trellis=2 / 8x8dct=1 / cqm=0 / deadzone=21,11 / fast_pskip=0 / chroma_qp_offset=-2 / threads=6 / lookahead_threads=1 / sliced_threads=0 / nr=0 / decimate=0 / interlaced=0 / bluray_compat=0 / constrained_intra=0 / bframes=7 / b_pyramid=2 / b_adapt=2 / b_bias=0 / direct=3 / weightb=1 / open_gop=0 / weightp=2 / keyint=250 / keyint_min=23 / scenecut=40 / intra_refresh=0 / rc=2pass / mbtree=0 / bitrate=1740 / ratetol=1.0 / qcomp=0.70 / qpmin=0 / qpmax=69 / qpstep=4 / cplxblur=20.0 / qblur=0.5 / ip_ratio=1.40 / pb_ratio=1.30 / aq=2:0.80Language : EnglishEncoded date : UTC 2017-02-09 14:45:16Tagged date : UTC 2017-02-09 14:46:29Color range : LimitedColor primaries : BT.709Transfer characteristics : BT.709Matrix coefficients : BT.709

AudioID : 2Format : AACFormat/Info : Advanced Audio CodecFormat profile : LCCodec ID : 40Duration : 1 h 31 minBit rate mode : VariableBit rate : 128 kb/sMaximum bit rate : 133 kb/sChannel(s) : 2 channelsChannel positions : Front: L RSampling rate : 48.0 kHzFrame rate : 46.875 FPS (1024 spf)Compression mode : LossyStream size : 84.2 MiB (7%)Language : RussianDefault : YesAlternate group : 1Encoded date : UTC 2017-02-09 14:46:22Tagged date : UTC 2017-02-09 14:46:29
<div class="clear" style="height: 8px;"></div>

Трекер:  [ 09-Фев-2017 17:00 ]

  

Скачать .torrent

Размер .torrent файла 12 KB


Размер: 1.2 GB
Хэш (hash) релиза: 9601d5f5e3b93947566dde12972baa6585ab83f9

Торренты, похожие на [VIDEO] Афоня скачать торрент

Форум Название Автор Размер S L Добавлен
Видео (Фильмы/Клипы) ·· [VIDEO] Афоня (Георгий Данелия) [1975, драма, мелодрама, комедия, HDRip] [MP4, 480x] Galfimbul 444686533424 MB 0 0 1486579073

21:37

8-Фев-17

Еще никто не оставлял запись к записи скачать торрент [VIDEO] Афоня . Будь первым!

!Обратная связь