Next Page navigate_next | Il pane del ritorno | محمد صديق المنشاوي

Скачать через торрент [VIDEO] Старик Хоттабыч бесплатно русская версия torrent активатор

Статистика раздачи
Размер:  1.05 GB   |    Зарегистрирован:  1 год 5 месяцев   |    .torrent скачан:  35 раз   |   
Раздают:  1  
   
загрузка...
 
Автор Сообщение

Galfimbul

avatar Galfimbul


<span class="post-font-serif1">Старик Хоттабыч</span>

<span class="post-font-serif1">Год выпуска: 1956
Страна: СССР
Жанр: фэнтези, семейный, сказка
Продолжительность: 01:24:20
Перевод: не требуется
Cубтитры: нет</span>
<span class="post-font-serif1">Режиссер: Геннадий Казанский</span>
<span class="post-font-serif1">В ролях: Николай Волков, Алёша Литвинов, Гена Худяков, Лёва Ковальчук, Ольга Черкасова, Майя Блинова, Ефим Копелян, Александр Лариков, Вера Романова, Евгений Весник, А. Галин, Борис Коковкин, Анатолий Королькевич, Всеволод Кузнецов, М. Степанов, Олег Вишнев и другие .</span>
<span class="post-font-serif1">Описание: 12-летний московский школьник Волька, купаясь в Москва-реке, находит какой-то древний запечатанный сосуд. Мальчишеское любопытство настолько сильно, что при первом же удобном случае Волька вскрывает его, и из сосуда появляется сказочный джинн — Гассан Абдурахман ибн Хоттаб.

За то, что Волька спас его от двухтысячелетнего заточения, джинн, прозванный мальчиком Хоттабычем, становится его верным слугой. Он пытается задарить мальчика, пригнав к его дому целый караван верблюдов с несметными сокровищами. Вместе они совершат увлекательный полет в Индию на волшебном ковре-самолете…</span>
<span class="post-font-serif1">Релиз группы </span>
<span class="post-font-serif1">Качество: BDRip / рип с Blu-ray 1080p
Формат: MP4
Видео кодек: H.264
Аудио кодек: AAC
Видео: 706x536 AR:4/3 1650 kbps 23.976 fps
Аудио: 2ch 48 kHz 128 kbps</span>
avs [info]: 706x536p 1:1 @ 2997/125 fps (cfr)
x264 [info]: using SAR=1/1
x264 [info]: using cpu capabilities: MMX2 SSE2Fast SSSE3 SSE4.2 AVX FMA3 AVX2 LZCNT BMI2
x264 [info]: profile High, level 4.1

x264 [info]: frame I:773 Avg QP:19.51 size: 67019
x264 [info]: frame P:32656 Avg QP:23.04 size: 16876
x264 [info]: frame B:87892 Avg QP:24.35 size: 5016
x264 [info]: consecutive B-frames: 3.2% 4.1% 14.7% 46.1% 16.9% 13.9% 0.7% 0.3%
x264 [info]: mb I I16..4: 2.6% 62.5% 34.9%
x264 [info]: mb P I16..4: 0.3% 4.9% 2.3% P16..4: 34.0% 35.0% 15.4% 0.0% 0.0% skip: 8.2%
x264 [info]: mb B I16..4: 0.0% 0.8% 0.4% B16..8: 26.9% 18.7% 4.5% direct: 4.2% skip:44.4% L0:30.9% L1:47.8% BI:21.2%
x264 [info]: 8x8 transform intra:65.5% inter:53.2%
x264 [info]: direct mvs spatial:98.7% temporal:1.3%
x264 [info]: coded y,uvDC,uvAC intra: 91.1% 76.8% 41.6% inter: 21.1% 13.3% 3.5%
x264 [info]: i16 v,h,dc,p: 10% 29% 4% 58%
x264 [info]: i8 v,h,dc,ddl,ddr,vr,hd,vl,hu: 13% 11% 4% 9% 12% 13% 12% 12% 13%
x264 [info]: i4 v,h,dc,ddl,ddr,vr,hd,vl,hu: 13% 15% 3% 8% 13% 13% 12% 11% 12%
x264 [info]: i8c dc,h,v,p: 30% 29% 23% 18%
x264 [info]: Weighted P-Frames: Y:13.1% UV:3.6%
x264 [info]: ref P L0: 59.8% 16.7% 12.4% 3.3% 2.8% 2.1% 2.5% 0.3% 0.0%
x264 [info]: ref B L0: 89.9% 6.2% 2.2% 0.9% 0.5% 0.3%
x264 [info]: ref B L1: 97.0% 3.0%
x264 [info]: kb/s:1650.13

encoded 121321 frames, 17.87 fps, 1650.13 kb/s
GeneralComplete name : D:\Torrents\Старик Хоттабыч.1956.BDRip.x264.960x.rip by Frost O.S.mp4Format : MPEG-4Format profile : Base MediaCodec ID : isom (isom/avc1)File size : 1.05 GiBDuration : 1 h 24 minOverall bit rate mode : VariableOverall bit rate : 1 786 kb/sMovie name : Старик Хоттабыч 1956 BDRip x264 960x rip by Frost O SGenre : Children'sContentType : Short FilmEncoded date : UTC 2017-02-09 09:54:45Tagged date : UTC 2017-02-09 09:56:34Writing application : MkvToMp4 version: 0.224 (x64)Cover : YesComment : rip by Frost O.S

VideoID : 1Format : AVCFormat/Info : Advanced Video CodecFormat profile : [email protected] settings, CABAC : YesFormat settings, ReFrames : 7 framesCodec ID : avc1Codec ID/Info : Advanced Video CodingDuration : 1 h 24 minBit rate : 1 650 kb/sMaximum bit rate : 4 589 kb/sWidth : 706 pixelsHeight : 536 pixelsDisplay aspect ratio : 4:3Frame rate mode : ConstantFrame rate : 23.976 (24000/1001) FPSOriginal frame rate : 23.976 (23976/1000) FPSColor space : YUVChroma subsampling : 4:2:0Bit depth : 8 bitsScan type : ProgressiveBits/(Pixel*Frame) : 0.182Stream size : 995 MiB (92%)Writing library : x264 core 148 r2705 3f5ed56Encoding settings : cabac=1 / ref=7 / deblock=1:-1:-1 / analyse=0x3:0x113 / me=umh / subme=11 / psy=1 / psy_rd=0.80:0.00 / mixed_ref=1 / me_range=32 / chroma_me=1 / trellis=2 / 8x8dct=1 / cqm=0 / deadzone=21,11 / fast_pskip=0 / chroma_qp_offset=-2 / threads=6 / lookahead_threads=1 / sliced_threads=0 / nr=0 / decimate=0 / interlaced=0 / bluray_compat=0 / constrained_intra=0 / bframes=7 / b_pyramid=2 / b_adapt=2 / b_bias=0 / direct=3 / weightb=1 / open_gop=0 / weightp=2 / keyint=250 / keyint_min=23 / scenecut=40 / intra_refresh=0 / rc=2pass / mbtree=0 / bitrate=1650 / ratetol=1.0 / qcomp=0.65 / qpmin=0 / qpmax=69 / qpstep=4 / cplxblur=20.0 / qblur=0.5 / ip_ratio=1.40 / pb_ratio=1.20 / aq=2:0.90Language : EnglishEncoded date : UTC 2017-02-09 09:54:45Tagged date : UTC 2017-02-09 09:55:41Color range : LimitedColor primaries : BT.709Transfer characteristics : BT.709Matrix coefficients : BT.709

AudioID : 2Format : AACFormat/Info : Advanced Audio CodecFormat profile : LCCodec ID : 40Duration : 1 h 24 minBit rate mode : VariableBit rate : 128 kb/sMaximum bit rate : 135 kb/sChannel(s) : 2 channelsChannel positions : Front: L RSampling rate : 48.0 kHzFrame rate : 46.875 FPS (1024 spf)Compression mode : LossyStream size : 77.2 MiB (7%)Language : RussianDefault : YesAlternate group : 1Encoded date : UTC 2017-02-09 09:55:33Tagged date : UTC 2017-02-09 09:55:41
<div class="clear" style="height: 8px;"></div>

Трекер:  [ 09-Фев-2017 12:00 ]

  

Скачать .torrent

Размер .torrent файла 11 KB


Размер: 1.05 GB
Хэш (hash) релиза: fabd19d8a2db4bab49c73acf752373913be5e4f7

Торренты, похожие на [VIDEO] Старик Хоттабыч скачать торрент

Форум Название Автор Размер S L Добавлен
Видео (Фильмы/Клипы) ·· [VIDEO] Старик Хоттабыч (Геннадий Казанский) [1956, фэнтези, семейный, сказка, HDRip] [MP4, 480x] Galfimbul 401533230383 MB 0 0 1486574093

20:14

8-Фев-17

Еще никто не оставлял запись к записи скачать торрент [VIDEO] Старик Хоттабыч . Будь первым!

!Обратная связь