VA - New EDM Songs From Week 28 of 2018 (Mp3 320Kbps Quality Songs) [PMEDIA] | Ganteng juga Merupakan Ujian - Tabayyun bersama Syakir Daulay | Спорт и фитнес

Скачать через торрент [VIDEO] Афоня бесплатно русская версия torrent активатор

Статистика раздачи
Размер:  424 MB   |    Зарегистрирован:  1 год 5 месяцев   |    .torrent скачан:  41 раз   |   
Раздают:  1  
   
загрузка...
 
Автор Сообщение

Galfimbul

avatar Galfimbul


<span class="post-font-serif1">Афоня</span>

<span class="post-font-serif1">Год выпуска: 1975
Страна: СССР
Жанр: драма, мелодрама, комедия
Продолжительность: 01:31:57
Перевод: не требуется
Cубтитры: нет</span>
<span class="post-font-serif1">Режиссер: Георгий Данелия</span>
<span class="post-font-serif1">В ролях: Леонид Куравлёв, Евгения Симонова, Евгений Леонов, Борислав Брондуков, Валентина Талызина, Владимир Басов, Готлиб Ронинсон, Николай Парфёнов, Нина Русланова, Раиса Куркина и другие .</span>
<span class="post-font-serif1">Описание: Весело и беззаботно жил слесарь-сантехник Афанасий. Не гнушался левыми заработками, любил выпить, поволочиться за девушками. Так проходил день за днем, но однажды… О том, что случилось с Афоней, рассказывает фильм признанного мастера комедии Георгия Данелии.</span>
<span class="post-font-serif1">Релиз группы </span>
<span class="post-font-serif1">Качество: HDRip / рип с BDRip 1080p
Формат: MP4
Видео кодек: XviD
Аудио кодек: AAC
Видео: 440x320 AR:1.375 509 kbps 23.976 fps
Аудио: 2ch 48 kHz 128 kbps</span>
GeneralComplete name : D:\Torrents\Афоня.1975.HDRip.XviD.480x.rip by Frost O.S.mp4Format : MPEG-4Format profile : Base MediaCodec ID : isom (isom)File size : 424 MiBDuration : 1 h 31 minOverall bit rate mode : VariableOverall bit rate : 645 kb/sMovie name : Афоня 1975 HDRip XviD 480x rip by Frost O SGenre : ComedyContentType : Short FilmEncoded date : UTC 2017-02-08 18:12:45Tagged date : UTC 2017-02-08 18:13:37Writing application : MkvToMp4 version: 0.224 (x64)Cover : YesComment : rip by Frost O.S

VideoID : 1Format : MPEG-4 VisualFormat profile : Advanced [email protected] settings, BVOP : YesFormat settings, QPel : NoFormat settings, GMC : No warppointsFormat settings, Matrix : CustomCodec ID : 20Duration : 1 h 31 minBit rate mode : VariableBit rate : 509 kb/sMaximum bit rate : 193 Mb/sWidth : 440 pixelsHeight : 320 pixelsDisplay aspect ratio : 1.375Frame rate mode : VariableFrame rate : 23.976 (23976/1000) FPSMinimum frame rate : 11.988 FPSMaximum frame rate : 23.976 FPSColor space : YUVChroma subsampling : 4:2:0Bit depth : 8 bitsScan type : ProgressiveCompression mode : LossyBits/(Pixel*Frame) : 0.151Stream size : 335 MiB (79%)Title : avi_GPAC0.5.2_DEV_rev248_g39d5978_masterWriting library : XviD 1.2.1 (UTC 2008-12-04)Language : EnglishTagged date : UTC 2017-02-08 18:13:14

AudioID : 2Format : AACFormat/Info : Advanced Audio CodecFormat profile : LCCodec ID : 40Duration : 1 h 31 minBit rate mode : VariableBit rate : 128 kb/sMaximum bit rate : 133 kb/sChannel(s) : 2 channelsChannel positions : Front: L RSampling rate : 48.0 kHzFrame rate : 46.875 FPS (1024 spf)Compression mode : LossyStream size : 84.2 MiB (20%)Language : RussianDefault : YesAlternate group : 1Encoded date : UTC 2017-02-08 18:13:06Tagged date : UTC 2017-02-08 18:13:14
<div class="clear" style="height: 8px;"></div>

Трекер:  [ 08-Фев-2017 20:30 ]

  

Скачать .torrent

Размер .torrent файла 17 KB


Размер: 424 MB
Хэш (hash) релиза: dfbb0a621f23f3e47f96ba0fc9934ba36ff87c9a

Торренты, похожие на [VIDEO] Афоня скачать торрент

Форум Название Автор Размер S L Добавлен
Видео (Фильмы/Клипы) ·· [VIDEO] Афоня (Георгий Данелия) [1975, драма, мелодрама, комедия, BDRip] [MP4, 960x] Galfimbul 12938455231.2 GB 2 0 1486652930

18:08

9-Фев-17

Еще никто не оставлял запись к записи скачать торрент [VIDEO] Афоня . Будь первым!

!Обратная связь